  0
SECTION
  2
HEADER
  9
$ACADVER
  1
AC1015
  9
$ACADMAINTVER
 70
     6
  9
$DWGCODEPAGE
  3
ANSI_1252
  9
$INSBASE
 10
0.0
 20
0.0
 30
0.0
  9
$EXTMIN
 10
133.6724864850665
 20
40.41513135379079
 30
-0.0000000349181948
  9
$EXTMAX
 10
204.0078742615971
 20
241.7430273605779
 30
0.0000000814935747
  9
$LIMMIN
 10
0.0
 20
0.0
  9
$LIMMAX
 10
420.0
 20
297.0
  9
$ORTHOMODE
 70
     0
  9
$REGENMODE
 70
     1
  9
$FILLMODE
 70
     1
  9
$QTEXTMODE
 70
     0
  9
$MIRRTEXT
 70
     1
  9
$LTSCALE
 40
1.0
  9
$ATTMODE
 70
     1
  9
$TEXTSIZE
 40
2.5
  9
$TRACEWID
 40
1.0
  9
$TEXTSTYLE
  7
Standard
  9
$CLAYER
  8
0
  9
$CELTYPE
  6
ByLayer
  9
$CECOLOR
 62
   256
  9
$CELTSCALE
 40
1.0
  9
$DISPSILH
 70
     0
  9
$DIMSCALE
 40
1.0
  9
$DIMASZ
 40
2.5
  9
$DIMEXO
 40
0.625
  9
$DIMDLI
 40
3.75
  9
$DIMRND
 40
0.0
  9
$DIMDLE
 40
0.0
  9
$DIMEXE
 40
1.25
  9
$DIMTP
 40
0.0
  9
$DIMTM
 40
0.0
  9
$DIMTXT
 40
2.5
  9
$DIMCEN
 40
2.5
  9
$DIMTSZ
 40
0.0
  9
$DIMTOL
 70
     0
  9
$DIMLIM
 70
     0
  9
$DIMTIH
 70
     0
  9
$DIMTOH
 70
     0
  9
$DIMSE1
 70
     0
  9
$DIMSE2
 70
     0
  9
$DIMTAD
 70
     1
  9
$DIMZIN
 70
     8
  9
$DIMBLK
  1

  9
$DIMASO
 70
     1
  9
$DIMSHO
 70
     1
  9
$DIMPOST
  1

  9
$DIMAPOST
  1

  9
$DIMALT
 70
     0
  9
$DIMALTD
 70
     3
  9
$DIMALTF
 40
0.03937007874016
  9
$DIMLFAC
 40
1.0
  9
$DIMTOFL
 70
     1
  9
$DIMTVP
 40
0.0
  9
$DIMTIX
 70
     0
  9
$DIMSOXD
 70
     0
  9
$DIMSAH
 70
     0
  9
$DIMBLK1
  1

  9
$DIMBLK2
  1

  9
$DIMSTYLE
  2
ISO-25
  9
$DIMCLRD
 70
     0
  9
$DIMCLRE
 70
     0
  9
$DIMCLRT
 70
     0
  9
$DIMTFAC
 40
1.0
  9
$DIMGAP
 40
0.625
  9
$DIMJUST
 70
     0
  9
$DIMSD1
 70
     0
  9
$DIMSD2
 70
     0
  9
$DIMTOLJ
 70
     0
  9
$DIMTZIN
 70
     8
  9
$DIMALTZ
 70
     0
  9
$DIMALTTZ
 70
     0
  9
$DIMUPT
 70
     0
  9
$DIMDEC
 70
     2
  9
$DIMTDEC
 70
     2
  9
$DIMALTU
 70
     2
  9
$DIMALTTD
 70
     3
  9
$DIMTXSTY
  7
Standard
  9
$DIMAUNIT
 70
     0
  9
$DIMADEC
 70
     0
  9
$DIMALTRND
 40
0.0
  9
$DIMAZIN
 70
     0
  9
$DIMDSEP
 70
    44
  9
$DIMATFIT
 70
     3
  9
$DIMFRAC
 70
     0
  9
$DIMLDRBLK
  1

  9
$DIMLUNIT
 70
     2
  9
$DIMLWD
 70
    -2
  9
$DIMLWE
 70
    -2
  9
$DIMTMOVE
 70
     0
  9
$LUNITS
 70
     2
  9
$LUPREC
 70
     4
  9
$SKETCHINC
 40
1.0
  9
$FILLETRAD
 40
10.0
  9
$AUNITS
 70
     0
  9
$AUPREC
 70
     0
  9
$MENU
  1
.
  9
$ELEVATION
 40
0.0
  9
$PELEVATION
 40
0.0
  9
$THICKNESS
 40
0.0
  9
$LIMCHECK
 70
     0
  9
$CHAMFERA
 40
10.0
  9
$CHAMFERB
 40
10.0
  9
$CHAMFERC
 40
20.0
  9
$CHAMFERD
 40
0.0
  9
$SKPOLY
 70
     0
  9
$TDCREATE
 40
2454207.415930983
  9
$TDUCREATE
 40
2454207.332597650
  9
$TDUPDATE
 40
2454207.468117396
  9
$TDUUPDATE
 40
2454207.384784062
  9
$TDINDWG
 40
0.0357573843
  9
$TDUSRTIMER
 40
0.0357566551
  9
$USRTIMER
 70
     1
  9
$ANGBASE
 50
0.0
  9
$ANGDIR
 70
     0
  9
$PDMODE
 70
     0
  9
$PDSIZE
 40
0.0
  9
$PLINEWID
 40
0.0
  9
$SPLFRAME
 70
     0
  9
$SPLINETYPE
 70
     6
  9
$SPLINESEGS
 70
     8
  9
$HANDSEED
  5
16E
  9
$SURFTAB1
 70
     6
  9
$SURFTAB2
 70
     6
  9
$SURFTYPE
 70
     6
  9
$SURFU
 70
     6
  9
$SURFV
 70
     6
  9
$UCSBASE
  2

  9
$UCSNAME
  2

  9
$UCSORG
 10
0.0
 20
0.0
 30
0.0
  9
$UCSXDIR
 10
1.0
 20
0.0
 30
0.0
  9
$UCSYDIR
 10
0.0
 20
1.0
 30
0.0
  9
$UCSORTHOREF
  2

  9
$UCSORTHOVIEW
 70
     0
  9
$UCSORGTOP
 10
0.0
 20
0.0
 30
0.0
  9
$UCSORGBOTTOM
 10
0.0
 20
0.0
 30
0.0
  9
$UCSORGLEFT
 10
0.0
 20
0.0
 30
0.0
  9
$UCSORGRIGHT
 10
0.0
 20
0.0
 30
0.0
  9
$UCSORGFRONT
 10
0.0
 20
0.0
 30
0.0
  9
$UCSORGBACK
 10
0.0
 20
0.0
 30
0.0
  9
$PUCSBASE
  2

  9
$PUCSNAME
  2

  9
$PUCSORG
 10
0.0
 20
0.0
 30
0.0
  9
$PUCSXDIR
 10
1.0
 20
0.0
 30
0.0
  9
$PUCSYDIR
 10
0.0
 20
1.0
 30
0.0
  9
$PUCSORTHOREF
  2

  9
$PUCSORTHOVIEW
 70
     0
  9
$PUCSORGTOP
 10
0.0
 20
0.0
 30
0.0
  9
$PUCSORGBOTTOM
 10
0.0
 20
0.0
 30
0.0
  9
$PUCSORGLEFT
 10
0.0
 20
0.0
 30
0.0
  9
$PUCSORGRIGHT
 10
0.0
 20
0.0
 30
0.0
  9
$PUCSORGFRONT
 10
0.0
 20
0.0
 30
0.0
  9
$PUCSORGBACK
 10
0.0
 20
0.0
 30
0.0
  9
$USERI1
 70
     0
  9
$USERI2
 70
     0
  9
$USERI3
 70
     0
  9
$USERI4
 70
     0
  9
$USERI5
 70
     0
  9
$USERR1
 40
0.0
  9
$USERR2
 40
0.0
  9
$USERR3
 40
0.0
  9
$USERR4
 40
0.0
  9
$USERR5
 40
0.0
  9
$WORLDVIEW
 70
     1
  9
$SHADEDGE
 70
     3
  9
$SHADEDIF
 70
    70
  9
$TILEMODE
 70
     1
  9
$MAXACTVP
 70
    64
  9
$PINSBASE
 10
0.0
 20
0.0
 30
0.0
  9
$PLIMCHECK
 70
     0
  9
$PEXTMIN
 10
24.38124809265135
 20
20.4312497138977
 30
0.0
  9
$PEXTMAX
 10
219.4312328338622
 20
183.8812474250793
 30
0.0
  9
$PLIMMIN
 10
-17.79376220703125
 20
-5.793749809265136
  9
$PLIMMAX
 10
261.606231689453
 20
210.1062440872192
  9
$UNITMODE
 70
     0
  9
$VISRETAIN
 70
     1
  9
$PLINEGEN
 70
     0
  9
$PSLTSCALE
 70
     1
  9
$TREEDEPTH
 70
  3020
  9
$CMLSTYLE
  2
Standard
  9
$CMLJUST
 70
     0
  9
$CMLSCALE
 40
20.0
  9
$PROXYGRAPHICS
 70
     1
  9
$MEASUREMENT
 70
     1
  9
$CELWEIGHT
370
    -1
  9
$ENDCAPS
280
     0
  9
$JOINSTYLE
280
     0
  9
$LWDISPLAY
290
     0
  9
$INSUNITS
 70
     4
  9
$HYPERLINKBASE
  1

  9
$STYLESHEET
  1

  9
$XEDIT
290
     1
  9
$CEPSNTYPE
380
     0
  9
$PSTYLEMODE
290
     1
  9
$FINGERPRINTGUID
  2
{76BC4BB0-63D2-46EE-8D7B-0EB340D0C945}
  9
$VERSIONGUID
  2
{660DBEBF-A526-4E4E-9DDF-3A9B76FEF19E}
  9
$EXTNAMES
290
     1
  9
$PSVPSCALE
 40
0.0
  9
$OLESTARTUP
290
     0
  0
ENDSEC
  0
SECTION
  2
CLASSES
  0
CLASS
  1
ACDBDICTIONARYWDFLT
  2
AcDbDictionaryWithDefault
  3
AutoCAD 2000
 90
        0
280
     0
281
     0
  0
CLASS
  1
ACDBPLACEHOLDER
  2
AcDbPlaceHolder
  3
AutoCAD 2000
 90
        0
280
     0
281
     0
  0
CLASS
  1
LAYOUT
  2
AcDbLayout
  3
AutoCAD 2000
 90
        0
280
     0
281
     0
  0
ENDSEC
  0
SECTION
  2
TABLES
  0
TABLE
  2
VPORT
  5
8
330
0
100
AcDbSymbolTable
 70
     3
  0
VPORT
  5
16D
330
8
100
AcDbSymbolTableRecord
100
AcDbViewportTableRecord
  2
*Active
 70
     0
 10
0.0
 20
0.0
 11
1.0
 21
1.0
 12
291.4336481419069
 22
203.7828805767236
 13
0.0
 23
0.0
 14
10.0
 24
10.0
 15
10.0
 25
10.0
 16
0.0
 26
0.0
 36
1.0
 17
0.0
 27
0.0
 37
0.0
 40
456.7226418264153
 41
1.885245901639344
 42
50.0
 43
0.0
 44
0.0
 50
0.0
 51
0.0
 71
     0
 72
   100
 73
     1
 74
     3
 75
     0
 76
     0
 77
     0
 78
     0
281
     0
 65
     1
110
0.0
120
0.0
130
0.0
111
1.0
121
0.0
131
0.0
112
0.0
122
1.0
132
0.0
 79
     0
146
0.0
  0
ENDTAB
  0
TABLE
  2
LTYPE
  5
5
330
0
100
AcDbSymbolTable
 70
     1
  0
LTYPE
  5
14
330
5
100
AcDbSymbolTableRecord
100
AcDbLinetypeTableRecord
  2
ByBlock
 70
     0
  3

 72
    65
 73
     0
 40
0.0
  0
LTYPE
  5
15
330
5
100
AcDbSymbolTableRecord
100
AcDbLinetypeTableRecord
  2
ByLayer
 70
     0
  3

 72
    65
 73
     0
 40
0.0
  0
LTYPE
  5
16
330
5
100
AcDbSymbolTableRecord
100
AcDbLinetypeTableRecord
  2
Continuous
 70
     0
  3
Solid line
 72
    65
 73
     0
 40
0.0
  0
ENDTAB
  0
TABLE
  2
LAYER
  5
2
330
0
100
AcDbSymbolTable
 70
     2
  0
LAYER
  5
10
330
2
100
AcDbSymbolTableRecord
100
AcDbLayerTableRecord
  2
0
 70
     0
 62
     7
  6
Continuous
370
    -3
390
F
  0
LAYER
  5
60
330
2
100
AcDbSymbolTableRecord
100
AcDbLayerTableRecord
  2
Defpoints
 70
     0
 62
     7
  6
Continuous
290
     0
370
    -3
390
F
  0
ENDTAB
  0
TABLE
  2
STYLE
  5
3
330
0
100
AcDbSymbolTable
 70
     1
  0
STYLE
  5
11
330
3
100
AcDbSymbolTableRecord
100
AcDbTextStyleTableRecord
  2
Standard
 70
     0
 40
0.0
 41
1.0
 50
0.0
 71
     0
 42
2.5
  3
txt
  4

  0
ENDTAB
  0
TABLE
  2
VIEW
  5
6
330
0
100
AcDbSymbolTable
 70
     0
  0
ENDTAB
  0
TABLE
  2
UCS
  5
7
330
0
100
AcDbSymbolTable
 70
     0
  0
ENDTAB
  0
TABLE
  2
APPID
  5
9
330
0
100
AcDbSymbolTable
 70
     1
  0
APPID
  5
12
330
9
100
AcDbSymbolTableRecord
100
AcDbRegAppTableRecord
  2
ACAD
 70
     0
  0
ENDTAB
  0
TABLE
  2
DIMSTYLE
  5
A
330
0
100
AcDbSymbolTable
 70
     1
100
AcDbDimStyleTable
 71
     1
340
27
  0
DIMSTYLE
105
27
102
{ACAD_REACTORS
330
6A
330
6E
330
6C
330
6D
102
}
330
A
100
AcDbSymbolTableRecord
100
AcDbDimStyleTableRecord
  2
ISO-25
 70
     0
 41
2.5
 42
0.625
 43
3.75
 44
1.25
 73
     0
 74
     0
 77
     1
 78
     8
140
2.5
141
2.5
143
0.03937007874016
147
0.625
171
     3
172
     1
271
     2
272
     2
274
     3
278
    44
283
     0
284
     8
340
11
  0
ENDTAB
  0
TABLE
  2
BLOCK_RECORD
  5
1
330
0
100
AcDbSymbolTable
 70
    11
  0
BLOCK_RECORD
  5
1F
330
1
100
AcDbSymbolTableRecord
100
AcDbBlockTableRecord
  2
*Model_Space
340
22
  0
BLOCK_RECORD
  5
1B
330
1
100
AcDbSymbolTableRecord
100
AcDbBlockTableRecord
  2
*Paper_Space
340
1E
  0
BLOCK_RECORD
  5
23
330
1
100
AcDbSymbolTableRecord
100
AcDbBlockTableRecord
  2
*Paper_Space0
340
26
  0
BLOCK_RECORD
  5
2B
330
1
100
AcDbSymbolTableRecord
100
AcDbBlockTableRecord
  2
Wandanschluß
340
0
310
2800000020000000200000000100080000000000000400000000000000000000000000000000000000000000000080000080000000808000800000008000800080800000C0C0C000C0DCC000F0CAA6000020400000206000002080000020A0000020C0000020E00000400000004020000040400000406000004080000040A0
310
000040C0000040E00000600000006020000060400000606000006080000060A0000060C0000060E00000800000008020000080400000806000008080000080A0000080C0000080E00000A0000000A0200000A0400000A0600000A0800000A0A00000A0C00000A0E00000C0000000C0200000C0400000C0600000C0800000C0
310
A00000C0C00000C0E00000E0000000E0200000E0400000E0600000E0800000E0A00000E0C00000E0E00040000000400020004000400040006000400080004000A0004000C0004000E00040200000402020004020400040206000402080004020A0004020C0004020E000404000004040200040404000404060004040800040
310
40A0004040C0004040E00040600000406020004060400040606000406080004060A0004060C0004060E00040800000408020004080400040806000408080004080A0004080C0004080E00040A0000040A0200040A0400040A0600040A0800040A0A00040A0C00040A0E00040C0000040C0200040C0400040C0600040C08000
310
40C0A00040C0C00040C0E00040E0000040E0200040E0400040E0600040E0800040E0A00040E0C00040E0E00080000000800020008000400080006000800080008000A0008000C0008000E00080200000802020008020400080206000802080008020A0008020C0008020E00080400000804020008040400080406000804080
310
008040A0008040C0008040E00080600000806020008060400080606000806080008060A0008060C0008060E00080800000808020008080400080806000808080008080A0008080C0008080E00080A0000080A0200080A0400080A0600080A0800080A0A00080A0C00080A0E00080C0000080C0200080C0400080C0600080C0
310
800080C0A00080C0C00080C0E00080E0000080E0200080E0400080E0600080E0800080E0A00080E0C00080E0E000C0000000C0002000C0004000C0006000C0008000C000A000C000C000C000E000C0200000C0202000C0204000C0206000C0208000C020A000C020C000C020E000C0400000C0402000C0404000C0406000C0
310
408000C040A000C040C000C040E000C0600000C0602000C0604000C0606000C0608000C060A000C060C000C060E000C0800000C0802000C0804000C0806000C0808000C080A000C080C000C080E000C0A00000C0A02000C0A04000C0A06000C0A08000C0A0A000C0A0C000C0A0E000C0C00000C0C02000C0C04000C0C06000
310
C0C08000C0C0A000F0FBFF00A4A0A000808080000000FF0000FF000000FFFF00FF000000FF00FF00FFFF0000FFFFFF0000000000000000000000000000000000000000000000000000000000000000000000000000000000FFFFFFFFFFFFFFFFFFFFFFFFFFFFFFFF00000000000000000000000000000000FF00FF00FF00FF
310
FF00FFFF00FF00FFFF00000000000000000000000000000000FFFF00FF00FF00FFFF00FFFF00FF00FF00000000000000000000000000000000FF00FF00FF00FF00FFFF00FFFF00FFFF00000000000000000000000000000000FFFF00FF00FF00FF00FFFF00FFFF00FF00000000000000000000000000000000FFFFFF00FF00
310
FF00FF00FFFF00FFFFFF00000000000000000000000000000000FF00FFFF00FF00FF00FF00FFFF00FFFF00000000000000000000000000000000FFFF00FFFF00FFFFFF00FF00FFFF00FF00000000000000000000000000000000FFFFFF00FFFF0000FFFF00FF00FFFFFF00000000000000000000000000000000FF00FFFF00
310
FFFF0000FFFF00FF00FFFF00000000000000000000000000000000FFFF00FFFFFF00FF0000FFFF00FF00FF00000000000000000000000000000000FFFFFF0000FFFF00FF0000FFFF00FFFF00000000000000000000000000000000FF00FFFFFF00FFFF00FF0000FFFF00FF00000000000000000000000000000000FFFF00FF
310
00FF00FFFF00FF0000FFFFFF00000000000000000000000000000000FF00FF00FF00FF00FFFF00FF0000FFFF00000000000000000000000000000000FFFF00FFFFFF00FFFFFFFFFFFFFFFFFF00000000000000000000000000000000FFFFFF0000FFFF00FF0000000000000000000000000000000000000000000000FF00FF
310
FFFF00FFFFFF0000000000000000000000000000000000000000000000FFFF00FFFFFF00FFFF0000000000000000000000000000000000000000000000FFFFFF0000FFFF00FF0000000000000000000000000000000000000000000000FF00FFFFFF00FFFFFF0000000000000000000000000000000000000000000000FFFF
310
00FFFFFF00FFFF0000000000000000000000000000000000000000000000FF00FF0000FFFF00FF0000000000000000000000000000000000000000000000FFFF00FFFF00FFFFFF0000000000000000000000000000000000000000000000FFFFFF0000FF00FFFF0000000000000000000000000000000000000000000000FF
310
00FFFF0000FF00FF0000000000000000000000000000000000000000000000FFFF00FFFF0000FFFF0000000000000000000000000000000000000000000000FFFFFF00FFFF0000FF0000000000000000000000000000000000000000000000FF00FFFF00FFFF00FF0000000000000000000000000000000000000000000000
310
FFFFFFFFFFFFFFFFFF0000000000000000000000000000000000000000000000000000000000000000000000000000000000000000000000
102
{BLKREFS
331
63
331
6B
331
137
331
13B
102
}
1001
ACAD
1000
DesignCenter Data
1002
{
1070
     1
1070
     4
1002
}
  0
BLOCK_RECORD
  5
30
330
1
100
AcDbSymbolTableRecord
100
AcDbBlockTableRecord
  2
*D2
340
0
  0
BLOCK_RECORD
  5
3C
330
1
100
AcDbSymbolTableRecord
100
AcDbBlockTableRecord
  2
*D3
340
0
  0
BLOCK_RECORD
  5
48
330
1
100
AcDbSymbolTableRecord
100
AcDbBlockTableRecord
  2
*D4
340
0
  0
BLOCK_RECORD
  5
54
330
1
100
AcDbSymbolTableRecord
100
AcDbBlockTableRecord
  2
*D5
340
0
  0
BLOCK_RECORD
  5
6F
330
1
100
AcDbSymbolTableRecord
100
AcDbBlockTableRecord
  2
*D6
340
0
  0
BLOCK_RECORD
  5
7B
330
1
100
AcDbSymbolTableRecord
100
AcDbBlockTableRecord
  2
*D7
340
0
  0
BLOCK_RECORD
  5
87
330
1
100
AcDbSymbolTableRecord
100
AcDbBlockTableRecord
  2
*D8
340
0
  0
BLOCK_RECORD
  5
93
330
1
100
AcDbSymbolTableRecord
100
AcDbBlockTableRecord
  2
*D9
340
0
  0
BLOCK_RECORD
  5
114
330
1
100
AcDbSymbolTableRecord
100
AcDbBlockTableRecord
  2
_None
340
0
  0
ENDTAB
  0
ENDSEC
  0
SECTION
  2
BLOCKS
  0
BLOCK
  5
20
330
1F
100
AcDbEntity
  8
0
100
AcDbBlockBegin
  2
*Model_Space
 70
     0
 10
0.0
 20
0.0
 30
0.0
  3
*Model_Space
  1

  0
ENDBLK
  5
21
330
1F
100
AcDbEntity
  8
0
100
AcDbBlockEnd
  0
BLOCK
  5
1C
330
1B
100
AcDbEntity
 67
     1
  8
0
100
AcDbBlockBegin
  2
*Paper_Space
 70
     0
 10
0.0
 20
0.0
 30
0.0
  3
*Paper_Space
  1

  0
ENDBLK
  5
1D
330
1B
100
AcDbEntity
 67
     1
  8
0
100
AcDbBlockEnd
  0
BLOCK
  5
24
330
23
100
AcDbEntity
  8
0
100
AcDbBlockBegin
  2
*Paper_Space0
 70
     0
 10
0.0
 20
0.0
 30
0.0
  3
*Paper_Space0
  1

  0
ENDBLK
  5
25
330
23
100
AcDbEntity
  8
0
100
AcDbBlockEnd
  0
BLOCK
  5
2E
330
2B
100
AcDbEntity
  8
0
370
    25
100
AcDbBlockBegin
  2
Wandanschluß
 70
     0
 10
0.0
 20
0.0
 30
0.0
  3
Wandanschluß
  1

  0
LWPOLYLINE
  5
2C
102
{ACAD_REACTORS
330
2D
102
}
330
2B
100
AcDbEntity
  8
0
100
AcDbPolyline
 90
        6
 70
     1
 43
0.0
 10
-1123.849314454251
 20
-9.831047406532263
 10
-1083.849314454251
 20
-9.831047406532237
 10
-1083.849314454251
 20
30.16895259346776
 10
-1103.849314454251
 20
30.16895259346773
 10
-1103.849314454251
 20
70.16895259346774
 10
-1123.849314454251
 20
70.16895259346774
  0
HATCH
  5
2D
330
2B
100
AcDbEntity
  8
0
370
    25
100
AcDbHatch
 10
0.0
 20
0.0
 30
0.0
210
0.0
220
0.0
230
1.0
  2
ANSI31
 70
     0
 71
     1
 91
        1
 92
        1
 93
        6
 72
     1
 10
-1123.849314454251
 20
-9.831047406532263
 11
-1083.849314454251
 21
-9.831047406532237
 72
     1
 10
-1083.849314454251
 20
-9.831047406532237
 11
-1083.849314454251
 21
30.16895259346776
 72
     1
 10
-1083.849314454251
 20
30.16895259346776
 11
-1103.849314454251
 21
30.16895259346773
 72
     1
 10
-1103.849314454251
 20
30.16895259346773
 11
-1103.849314454251
 21
70.16895259346774
 72
     1
 10
-1103.849314454251
 20
70.16895259346774
 11
-1123.849314454251
 21
70.16895259346774
 72
     1
 10
-1123.849314454251
 20
70.16895259346774
 11
-1123.849314454251
 21
-9.831047406532263
 97
        1
330
2C
 75
     0
 76
     1
 52
180.0
 41
1.0
 77
     0
 78
     1
 53
225.0
 43
-937.704369313953
 44
209.4417682680322
 45
2.245064030267287
 46
-2.245064030267287
 79
     0
 98
        1
 10
-937.704369313953
 20
209.4417682680322
  0
ENDBLK
  5
2F
330
2B
100
AcDbEntity
  8
0
370
    25
100
AcDbBlockEnd
  0
BLOCK
  5
3A
330
30
100
AcDbEntity
  8
0
370
    25
100
AcDbBlockBegin
  2
*D2
 70
     1
 10
0.0
 20
0.0
 30
0.0
  3
*D2
  1

  0
LINE
  5
31
330
30
100
AcDbEntity
  8
0
 62
     0
370
    -2
100
AcDbLine
 10
-426.8141850605001
 20
453.680789387116
 30
0.0
 11
-426.8141850605001
 21
458.9009535683207
 31
0.0
  0
LINE
  5
32
330
30
100
AcDbEntity
  8
0
 62
     0
370
    -2
100
AcDbLine
 10
-406.8141850605001
 20
453.680789387116
 30
0.0
 11
-406.8141850605001
 21
458.9009535683207
 31
0.0
  0
LINE
  5
33
330
30
100
AcDbEntity
  8
0
 62
     0
370
    -2
100
AcDbLine
 10
-424.3141850605002
 20
457.6509535683206
 30
0.0
 11
-409.3141850605001
 21
457.6509535683206
 31
0.0
  0
SOLID
  5
34
330
30
100
AcDbEntity
  8
0
 62
     0
370
    25
100
AcDbTrace
 10
-424.3141850605002
 20
458.0676202349875
 30
0.0
 11
-424.3141850605002
 21
457.2342869016541
 31
0.0
 12
-426.8141850605001
 22
457.6509535683206
 32
0.0
 13
-426.8141850605001
 23
457.6509535683206
 33
0.0
  0
SOLID
  5
35
330
30
100
AcDbEntity
  8
0
 62
     0
370
    25
100
AcDbTrace
 10
-409.3141850605001
 20
458.0676202349875
 30
0.0
 11
-409.3141850605001
 21
457.2342869016541
 31
0.0
 12
-406.8141850605001
 22
457.6509535683206
 32
0.0
 13
-406.8141850605001
 23
457.6509535683206
 33
0.0
  0
MTEXT
  5
36
330
30
100
AcDbEntity
  8
0
 62
     0
370
    25
100
AcDbMText
 10
-416.8141850605
 20
462.0259535683207
 30
0.0
 40
7.5
 41
0.0
 71
     5
 72
     1
  1
20
 73
     1
 44
1.0
  0
POINT
  5
37
330
30
100
AcDbEntity
  8
Defpoints
 62
     0
370
    25
100
AcDbPoint
 10
-426.8141850605001
 20
448.680789387116
 30
0.0
  0
POINT
  5
38
330
30
100
AcDbEntity
  8
Defpoints
 62
     0
370
    25
100
AcDbPoint
 10
-406.8141850605001
 20
448.680789387116
 30
0.0
  0
POINT
  5
39
330
30
100
AcDbEntity
  8
Defpoints
 62
     0
370
    25
100
AcDbPoint
 10
-406.8141850605001
 20
457.6509535683206
 30
0.0
  0
ENDBLK
  5
3B
330
30
100
AcDbEntity
  8
0
370
    25
100
AcDbBlockEnd
  0
BLOCK
  5
46
330
3C
100
AcDbEntity
  8
0
370
    25
100
AcDbBlockBegin
  2
*D3
 70
     1
 10
0.0
 20
0.0
 30
0.0
  3
*D3
  1

  0
LINE
  5
3D
330
3C
100
AcDbEntity
  8
0
 62
     0
370
    -2
100
AcDbLine
 10
-381.8141850605001
 20
368.6807893871161
 30
0.0
 11
-373.3134248673705
 21
368.6807893871161
 31
0.0
  0
LINE
  5
3E
330
3C
100
AcDbEntity
  8
0
 62
     0
370
    -2
100
AcDbLine
 10
-381.8141850605001
 20
408.680789387116
 30
0.0
 11
-373.3134248673703
 21
408.680789387116
 31
0.0
  0
LINE
  5
3F
330
3C
100
AcDbEntity
  8
0
 62
     0
370
    -2
100
AcDbLine
 10
-374.5634248673705
 20
371.180789387116
 30
0.0
 11
-374.5634248673705
 21
406.1807893871161
 31
0.0
  0
SOLID
  5
40
330
3C
100
AcDbEntity
  8
0
 62
     0
370
    25
100
AcDbTrace
 10
-374.9800915340371
 20
371.180789387116
 30
0.0
 11
-374.1467582007038
 21
371.180789387116
 31
0.0
 12
-374.5634248673705
 22
368.6807893871161
 32
0.0
 13
-374.5634248673705
 23
368.6807893871161
 33
0.0
  0
SOLID
  5
41
330
3C
100
AcDbEntity
  8
0
 62
     0
370
    25
100
AcDbTrace
 10
-374.9800915340371
 20
406.1807893871161
 30
0.0
 11
-374.1467582007038
 21
406.1807893871161
 31
0.0
 12
-374.5634248673705
 22
408.680789387116
 32
0.0
 13
-374.5634248673705
 23
408.680789387116
 33
0.0
  0
MTEXT
  5
42
330
3C
100
AcDbEntity
  8
0
 62
     0
370
    25
100
AcDbMText
 10
-378.9384248673706
 20
388.680789387116
 30
0.0
 40
7.5
 41
0.0
 71
     5
 72
     1
  1
40
 11
0.0000000000000001
 21
1.0
 31
0.0
 73
     1
 44
1.0
  0
POINT
  5
43
330
3C
100
AcDbEntity
  8
Defpoints
 62
     0
370
    25
100
AcDbPoint
 10
-386.8141850605001
 20
368.6807893871161
 30
0.0
  0
POINT
  5
44
330
3C
100
AcDbEntity
  8
Defpoints
 62
     0
370
    25
100
AcDbPoint
 10
-386.8141850605001
 20
408.6807893871162
 30
0.0
  0
POINT
  5
45
330
3C
100
AcDbEntity
  8
Defpoints
 62
     0
370
    25
100
AcDbPoint
 10
-374.5634248673705
 20
408.680789387116
 30
0.0
  0
ENDBLK
  5
47
330
3C
100
AcDbEntity
  8
0
370
    25
100
AcDbBlockEnd
  0
BLOCK
  5
52
330
48
100
AcDbEntity
  8
0
370
    25
100
AcDbBlockBegin
  2
*D4
 70
     1
 10
0.0
 20
0.0
 30
0.0
  3
*D4
  1

  0
LINE
  5
49
330
48
100
AcDbEntity
  8
0
 62
     0
370
    -2
100
AcDbLine
 10
-406.8141850605001
 20
413.6807893871161
 30
0.0
 11
-406.8141850605001
 21
418.1260009012794
 31
0.0
  0
LINE
  5
4A
330
48
100
AcDbEntity
  8
0
 62
     0
370
    -2
100
AcDbLine
 10
-386.8141850605001
 20
413.6807893871162
 30
0.0
 11
-386.8141850605001
 21
418.1260009012794
 31
0.0
  0
LINE
  5
4B
330
48
100
AcDbEntity
  8
0
 62
     0
370
    -2
100
AcDbLine
 10
-404.3141850605
 20
416.8760009012793
 30
0.0
 11
-389.3141850605001
 21
416.8760009012793
 31
0.0
  0
SOLID
  5
4C
330
48
100
AcDbEntity
  8
0
 62
     0
370
    25
100
AcDbTrace
 10
-404.3141850605
 20
417.2926675679461
 30
0.0
 11
-404.3141850605
 21
416.4593342346126
 31
0.0
 12
-406.8141850605001
 22
416.8760009012793
 32
0.0
 13
-406.8141850605001
 23
416.8760009012793
 33
0.0
  0
SOLID
  5
4D
330
48
100
AcDbEntity
  8
0
 62
     0
370
    25
100
AcDbTrace
 10
-389.3141850605001
 20
417.2926675679461
 30
0.0
 11
-389.3141850605001
 21
416.4593342346126
 31
0.0
 12
-386.8141850605001
 22
416.8760009012793
 32
0.0
 13
-386.8141850605001
 23
416.8760009012793
 33
0.0
  0
MTEXT
  5
4E
330
48
100
AcDbEntity
  8
0
 62
     0
370
    25
100
AcDbMText
 10
-395.9440782454838
 20
421.2510009012794
 30
0.0
 40
7.5
 41
0.0
 71
     5
 72
     1
  1
20
 73
     1
 44
1.0
  0
POINT
  5
4F
330
48
100
AcDbEntity
  8
Defpoints
 62
     0
370
    25
100
AcDbPoint
 10
-406.8141850605001
 20
408.680789387116
 30
0.0
  0
POINT
  5
50
330
48
100
AcDbEntity
  8
Defpoints
 62
     0
370
    25
100
AcDbPoint
 10
-386.8141850605001
 20
408.6807893871162
 30
0.0
  0
POINT
  5
51
330
48
100
AcDbEntity
  8
Defpoints
 62
     0
370
    25
100
AcDbPoint
 10
-386.8141850605001
 20
416.8760009012793
 30
0.0
  0
ENDBLK
  5
53
330
48
100
AcDbEntity
  8
0
370
    25
100
AcDbBlockEnd
  0
BLOCK
  5
5E
330
54
100
AcDbEntity
  8
0
370
    25
100
AcDbBlockBegin
  2
*D5
 70
     1
 10
0.0
 20
0.0
 30
0.0
  3
*D5
  1

  0
LINE
  5
55
330
54
100
AcDbEntity
  8
0
 62
     0
370
    -2
100
AcDbLine
 10
-431.8141850605001
 20
448.680789387116
 30
0.0
 11
-436.7199224735503
 21
448.680789387116
 31
0.0
  0
LINE
  5
56
330
54
100
AcDbEntity
  8
0
 62
     0
370
    -2
100
AcDbLine
 10
-431.8141850605001
 20
368.6807893871161
 30
0.0
 11
-436.7199224735505
 21
368.6807893871161
 31
0.0
  0
LINE
  5
57
330
54
100
AcDbEntity
  8
0
 62
     0
370
    -2
100
AcDbLine
 10
-435.4699224735504
 20
446.180789387116
 30
0.0
 11
-435.4699224735504
 21
371.180789387116
 31
0.0
  0
SOLID
  5
58
330
54
100
AcDbEntity
  8
0
 62
     0
370
    25
100
AcDbTrace
 10
-435.8865891402171
 20
446.180789387116
 30
0.0
 11
-435.0532558068836
 21
446.180789387116
 31
0.0
 12
-435.4699224735504
 22
448.680789387116
 32
0.0
 13
-435.4699224735504
 23
448.680789387116
 33
0.0
  0
SOLID
  5
59
330
54
100
AcDbEntity
  8
0
 62
     0
370
    25
100
AcDbTrace
 10
-435.8865891402171
 20
371.180789387116
 30
0.0
 11
-435.0532558068836
 21
371.180789387116
 31
0.0
 12
-435.4699224735504
 22
368.6807893871161
 32
0.0
 13
-435.4699224735504
 23
368.6807893871161
 33
0.0
  0
MTEXT
  5
5A
330
54
100
AcDbEntity
  8
0
 62
     0
370
    25
100
AcDbMText
 10
-439.8449224735505
 20
403.055789387116
 30
0.0
 40
7.5
 41
0.0
 71
     5
 72
     1
  1
80
 11
0.0000000000000001
 21
1.0
 31
0.0
 73
     1
 44
1.0
  0
POINT
  5
5B
330
54
100
AcDbEntity
  8
Defpoints
 62
     0
370
    25
100
AcDbPoint
 10
-426.8141850605001
 20
448.680789387116
 30
0.0
  0
POINT
  5
5C
330
54
100
AcDbEntity
  8
Defpoints
 62
     0
370
    25
100
AcDbPoint
 10
-426.8141850605001
 20
368.6807893871161
 30
0.0
  0
POINT
  5
5D
330
54
100
AcDbEntity
  8
Defpoints
 62
     0
370
    25
100
AcDbPoint
 10
-435.4699224735504
 20
368.6807893871161
 30
0.0
  0
ENDBLK
  5
5F
330
54
100
AcDbEntity
  8
0
370
    25
100
AcDbBlockEnd
  0
BLOCK
  5
79
330
6F
100
AcDbEntity
  8
0
100
AcDbBlockBegin
  2
*D6
 70
     1
 10
0.0
 20
0.0
 30
0.0
  3
*D6
  1

  0
LINE
  5
9F
330
6F
100
AcDbEntity
  8
0
 62
     0
370
    -2
100
AcDbLine
 10
150.4813157019126
 20
225.2622874469281
 30
0.0
 11
150.4813157019126
 21
234.8574516281328
 31
0.0
  0
LINE
  5
A0
330
6F
100
AcDbEntity
  8
0
 62
     0
370
    -2
100
AcDbLine
 10
170.4813157019126
 20
225.2622874469281
 30
0.0
 11
170.4813157019126
 21
234.8574516281328
 31
0.0
  0
LINE
  5
A1
330
6F
100
AcDbEntity
  8
0
 62
     0
370
    -2
100
AcDbLine
 10
152.9813157019126
 20
233.6074516281328
 30
0.0
 11
167.9813157019126
 21
233.6074516281328
 31
0.0
  0
SOLID
  5
A2
330
6F
100
AcDbEntity
  8
0
 62
     0
100
AcDbTrace
 10
152.9813157019126
 20
234.0241182947994
 30
0.0
 11
152.9813157019126
 21
233.1907849614661
 31
0.0
 12
150.4813157019126
 22
233.6074516281328
 32
0.0
 13
150.4813157019126
 23
233.6074516281328
 33
0.0
  0
SOLID
  5
A3
330
6F
100
AcDbEntity
  8
0
 62
     0
100
AcDbTrace
 10
167.9813157019126
 20
234.0241182947994
 30
0.0
 11
167.9813157019126
 21
233.1907849614661
 31
0.0
 12
170.4813157019126
 22
233.6074516281328
 32
0.0
 13
170.4813157019126
 23
233.6074516281328
 33
0.0
  0
MTEXT
  5
A4
330
6F
100
AcDbEntity
  8
0
 62
     0
370
    25
100
AcDbMText
 10
160.4813157019126
 20
237.9824516281328
 30
0.0
 40
7.5
 41
0.0
 71
     5
 72
     1
  1
20
 73
     1
 44
1.0
  0
POINT
  5
A5
330
6F
100
AcDbEntity
  8
Defpoints
 62
     0
100
AcDbPoint
 10
150.4813157019126
 20
224.6372874469281
 30
0.0
  0
POINT
  5
A6
330
6F
100
AcDbEntity
  8
Defpoints
 62
     0
100
AcDbPoint
 10
170.4813157019126
 20
224.6372874469281
 30
0.0
  0
POINT
  5
A7
330
6F
100
AcDbEntity
  8
Defpoints
 62
     0
100
AcDbPoint
 10
170.4813157019126
 20
233.6074516281328
 30
0.0
  0
ENDBLK
  5
7A
330
6F
100
AcDbEntity
  8
0
100
AcDbBlockEnd
  0
BLOCK
  5
85
330
7B
100
AcDbEntity
  8
0
100
AcDbBlockBegin
  2
*D7
 70
     1
 10
0.0
 20
0.0
 30
0.0
  3
*D7
  1

  0
LINE
  5
158
330
7B
100
AcDbEntity
  8
0
 62
     0
370
    -2
100
AcDbLine
 10
149.8563157019126
 20
224.6372874469281
 30
0.0
 11
140.5755782888624
 21
224.6372874469281
 31
0.0
  0
LINE
  5
159
330
7B
100
AcDbEntity
  8
0
 62
     0
370
    -2
100
AcDbLine
 10
149.8563157019126
 20
144.6372874469281
 30
0.0
 11
140.5755782888624
 21
144.6372874469281
 31
0.0
  0
LINE
  5
15A
330
7B
100
AcDbEntity
  8
0
 62
     0
370
    -2
100
AcDbLine
 10
141.8255782888624
 20
222.1372874469281
 30
0.0
 11
141.8255782888624
 21
147.1372874469281
 31
0.0
  0
SOLID
  5
15B
330
7B
100
AcDbEntity
  8
0
 62
     0
100
AcDbTrace
 10
141.4089116221957
 20
222.1372874469281
 30
0.0
 11
142.2422449555291
 21
222.1372874469281
 31
0.0
 12
141.8255782888624
 22
224.6372874469281
 32
0.0
 13
141.8255782888624
 23
224.6372874469281
 33
0.0
  0
SOLID
  5
15C
330
7B
100
AcDbEntity
  8
0
 62
     0
100
AcDbTrace
 10
141.4089116221957
 20
147.1372874469281
 30
0.0
 11
142.242244955529
 21
147.1372874469281
 31
0.0
 12
141.8255782888624
 22
144.6372874469281
 32
0.0
 13
141.8255782888624
 23
144.6372874469281
 33
0.0
  0
MTEXT
  5
15D
330
7B
100
AcDbEntity
  8
0
 62
     0
370
    25
100
AcDbMText
 10
137.4505782888624
 20
179.0122874469279
 30
0.0
 40
7.5
 41
0.0
 71
     5
 72
     1
  1
80
 11
0.0000000000000001
 21
1.0
 31
0.0
 73
     1
 44
1.0
  0
POINT
  5
15E
330
7B
100
AcDbEntity
  8
Defpoints
 62
     0
100
AcDbPoint
 10
150.4813157019126
 20
224.6372874469281
 30
0.0
  0
POINT
  5
15F
330
7B
100
AcDbEntity
  8
Defpoints
 62
     0
100
AcDbPoint
 10
150.4813157019126
 20
144.6372874469281
 30
0.0
  0
POINT
  5
160
330
7B
100
AcDbEntity
  8
Defpoints
 62
     0
100
AcDbPoint
 10
141.8255782888624
 20
144.6372874469281
 30
0.0
  0
ENDBLK
  5
86
330
7B
100
AcDbEntity
  8
0
100
AcDbBlockEnd
  0
BLOCK
  5
91
330
87
100
AcDbEntity
  8
0
100
AcDbBlockBegin
  2
*D8
 70
     1
 10
0.0
 20
0.0
 30
0.0
  3
*D8
  1

  0
LINE
  5
161
330
87
100
AcDbEntity
  8
0
 62
     0
370
    -2
100
AcDbLine
 10
170.4813157019126
 20
185.2622874469281
 30
0.0
 11
170.4813157019126
 21
194.0824989610914
 31
0.0
  0
LINE
  5
162
330
87
100
AcDbEntity
  8
0
 62
     0
370
    -2
100
AcDbLine
 10
190.4813157019126
 20
185.2622874469281
 30
0.0
 11
190.4813157019126
 21
194.0824989610914
 31
0.0
  0
LINE
  5
163
330
87
100
AcDbEntity
  8
0
 62
     0
370
    -2
100
AcDbLine
 10
172.9813157019126
 20
192.8324989610914
 30
0.0
 11
187.9813157019126
 21
192.8324989610914
 31
0.0
  0
SOLID
  5
164
330
87
100
AcDbEntity
  8
0
 62
     0
100
AcDbTrace
 10
172.9813157019126
 20
193.249165627758
 30
0.0
 11
172.9813157019126
 21
192.4158322944247
 31
0.0
 12
170.4813157019126
 22
192.8324989610914
 32
0.0
 13
170.4813157019126
 23
192.8324989610914
 33
0.0
  0
SOLID
  5
165
330
87
100
AcDbEntity
  8
0
 62
     0
100
AcDbTrace
 10
187.9813157019126
 20
193.249165627758
 30
0.0
 11
187.9813157019126
 21
192.4158322944247
 31
0.0
 12
190.4813157019126
 22
192.8324989610914
 32
0.0
 13
190.4813157019126
 23
192.8324989610914
 33
0.0
  0
MTEXT
  5
166
330
87
100
AcDbEntity
  8
0
 62
     0
370
    25
100
AcDbMText
 10
181.351422516929
 20
197.2074989610914
 30
0.0
 40
7.5
 41
0.0
 71
     5
 72
     1
  1
20
 73
     1
 44
1.0
  0
POINT
  5
167
330
87
100
AcDbEntity
  8
Defpoints
 62
     0
100
AcDbPoint
 10
170.4813157019126
 20
184.6372874469281
 30
0.0
  0
POINT
  5
168
330
87
100
AcDbEntity
  8
Defpoints
 62
     0
100
AcDbPoint
 10
190.4813157019126
 20
184.6372874469281
 30
0.0
  0
POINT
  5
169
330
87
100
AcDbEntity
  8
Defpoints
 62
     0
100
AcDbPoint
 10
190.4813157019126
 20
192.8324989610914
 30
0.0
  0
ENDBLK
  5
92
330
87
100
AcDbEntity
  8
0
100
AcDbBlockEnd
  0
BLOCK
  5
9D
330
93
100
AcDbEntity
  8
0
100
AcDbBlockBegin
  2
*D9
 70
     1
 10
0.0
 20
0.0
 30
0.0
  3
*D9
  1

  0
LINE
  5
BA
330
93
100
AcDbEntity
  8
0
 62
     0
370
    -2
100
AcDbLine
 10
191.1063157019126
 20
144.6372874469281
 30
0.0
 11
203.9820758950424
 21
144.6372874469281
 31
0.0
  0
LINE
  5
BB
330
93
100
AcDbEntity
  8
0
 62
     0
370
    -2
100
AcDbLine
 10
191.1063157019126
 20
184.6372874469281
 30
0.0
 11
203.9820758950424
 21
184.6372874469281
 31
0.0
  0
LINE
  5
BC
330
93
100
AcDbEntity
  8
0
 62
     0
370
    -2
100
AcDbLine
 10
202.7320758950425
 20
147.1372874469281
 30
0.0
 11
202.7320758950425
 21
182.1372874469281
 31
0.0
  0
SOLID
  5
BD
330
93
100
AcDbEntity
  8
0
 62
     0
100
AcDbTrace
 10
202.3154092283758
 20
147.1372874469281
 30
0.0
 11
203.1487425617091
 21
147.1372874469281
 31
0.0
 12
202.7320758950425
 22
144.6372874469281
 32
0.0
 13
202.7320758950425
 23
144.6372874469281
 33
0.0
  0
SOLID
  5
BE
330
93
100
AcDbEntity
  8
0
 62
     0
100
AcDbTrace
 10
202.3154092283758
 20
182.1372874469281
 30
0.0
 11
203.1487425617091
 21
182.1372874469281
 31
0.0
 12
202.7320758950425
 22
184.6372874469281
 32
0.0
 13
202.7320758950425
 23
184.6372874469281
 33
0.0
  0
MTEXT
  5
BF
330
93
100
AcDbEntity
  8
0
 62
     0
370
    25
100
AcDbMText
 10
198.3570758950424
 20
164.6372874469281
 30
0.0
 40
7.5
 41
0.0
 71
     5
 72
     1
  1
40
 11
0.0000000000000001
 21
1.0
 31
0.0
 73
     1
 44
1.0
  0
POINT
  5
C0
330
93
100
AcDbEntity
  8
Defpoints
 62
     0
100
AcDbPoint
 10
190.4813157019126
 20
144.6372874469281
 30
0.0
  0
POINT
  5
C1
330
93
100
AcDbEntity
  8
Defpoints
 62
     0
100
AcDbPoint
 10
190.4813157019126
 20
184.6372874469281
 30
0.0
  0
POINT
  5
C2
330
93
100
AcDbEntity
  8
Defpoints
 62
     0
100
AcDbPoint
 10
202.7320758950425
 20
184.6372874469281
 30
0.0
  0
ENDBLK
  5
9E
330
93
100
AcDbEntity
  8
0
100
AcDbBlockEnd
  0
BLOCK
  5
115
330
114
100
AcDbEntity
  8
0
100
AcDbBlockBegin
  2
_None
 70
     0
 10
0.0
 20
0.0
 30
0.0
  3
_None
  1

  0
ENDBLK
  5
116
330
114
100
AcDbEntity
  8
0
100
AcDbBlockEnd
  0
ENDSEC
  0
SECTION
  2
ENTITIES
  0
DIMENSION
  5
6A
330
1F
100
AcDbEntity
  8
0
370
    25
100
AcDbDimension
  2
*D6
 10
170.4813157019126
 20
233.6074516281328
 30
0.0
 11
160.4813157019126
 21
233.6074516281328
 31
0.0
 70
   160
 71
     5
 42
20.0
  3
ISO-25
100
AcDbAlignedDimension
 13
150.4813157019126
 23
224.6372874469281
 33
0.0
 14
170.4813157019126
 24
224.6372874469281
 34
0.0
100
AcDbRotatedDimension
1001
ACAD
1000
DSTYLE
1002
{
1070
   140
1040
7.5
1002
}
  0
DIMENSION
  5
6C
330
1F
100
AcDbEntity
  8
0
370
    25
100
AcDbDimension
  2
*D7
 10
141.8255782888624
 20
144.6372874469281
 30
0.0
 11
141.8255782888623
 21
179.0122874469279
 31
0.0
 70
   160
 71
     5
 42
80.0
  3
ISO-25
100
AcDbAlignedDimension
 13
150.4813157019126
 23
224.6372874469281
 33
0.0
 14
150.4813157019126
 24
144.6372874469281
 34
0.0
 50
90.0
100
AcDbRotatedDimension
1001
ACAD
1000
DSTYLE
1002
{
1070
   140
1040
7.5
1002
}
  0
DIMENSION
  5
6D
330
1F
100
AcDbEntity
  8
0
370
    25
100
AcDbDimension
  2
*D8
 10
190.4813157019126
 20
192.8324989610914
 30
0.0
 11
181.351422516929
 21
192.8324989610914
 31
0.0
 70
   160
 71
     5
 42
20.0
  3
ISO-25
100
AcDbAlignedDimension
 13
170.4813157019126
 23
184.6372874469281
 33
0.0
 14
190.4813157019126
 24
184.6372874469281
 34
0.0
100
AcDbRotatedDimension
1001
ACAD
1000
DSTYLE
1002
{
1070
   140
1040
7.5
1002
}
  0
DIMENSION
  5
6E
330
1F
100
AcDbEntity
  8
0
370
    25
100
AcDbDimension
  2
*D9
 10
202.7320758950425
 20
184.6372874469281
 30
0.0
 11
198.3570758950424
 21
164.6372874469281
 31
0.0
 70
    32
 71
     5
 42
40.0
  3
ISO-25
100
AcDbAlignedDimension
 13
190.4813157019126
 23
144.6372874469281
 33
0.0
 14
190.4813157019126
 24
184.6372874469281
 34
0.0
 50
90.0
100
AcDbRotatedDimension
1001
ACAD
1000
DSTYLE
1002
{
1070
   140
1040
7.5
1002
}
  0
INSERT
  5
13B
330
1F
100
AcDbEntity
  8
0
370
    25
100
AcDbBlockReference
  2
Wandanschluß
 10
1277.123784403324
 20
50.26425112652852
 30
0.0
  0
HATCH
  5
13D
330
1F
100
AcDbEntity
  8
0
370
    25
100
AcDbHatch
 10
0.0
 20
0.0
 30
0.0
210
0.0
220
0.0
230
1.0
  2
ANSI31
 70
     0
 71
     0
 91
        1
 92
        1
 93
        6
 72
     1
 10
150.4813157019126
 20
144.6372874469281
 11
190.4813157019126
 21
144.6372874469281
 72
     1
 10
190.4813157019126
 20
144.6372874469281
 11
190.4813157019126
 21
184.6372874469281
 72
     1
 10
190.4813157019126
 20
184.6372874469281
 11
170.4813157019126
 21
184.6372874469281
 72
     1
 10
170.4813157019126
 20
184.6372874469281
 11
170.4813157019126
 21
224.6372874469281
 72
     1
 10
170.4813157019126
 20
224.6372874469281
 11
150.4813157019126
 21
224.6372874469281
 72
     1
 10
150.4813157019126
 20
224.6372874469281
 11
150.4813157019126
 21
144.6372874469281
 97
        0
 75
     0
 76
     1
 52
180.0
 41
1.0
 77
     0
 78
     1
 53
225.0
 43
336.6262608422109
 44
363.9101031214926
 45
2.245064030267287
 46
-2.245064030267287
 79
     0
 98
        1
 10
336.6262608422109
 20
363.9101031214926
  0
LINE
  5
13E
330
1F
100
AcDbEntity
  8
0
100
AcDbLine
 10
150.4813157019126
 20
144.6372874469281
 30
0.0
 11
190.4813157019126
 21
144.6372874469281
 31
0.0
  0
LINE
  5
13F
330
1F
100
AcDbEntity
  8
0
100
AcDbLine
 10
190.4813157019126
 20
144.6372874469281
 30
0.0
 11
190.4813157019126
 21
184.6372874469281
 31
0.0
  0
LINE
  5
140
330
1F
100
AcDbEntity
  8
0
100
AcDbLine
 10
190.4813157019126
 20
184.6372874469281
 30
0.0
 11
170.4813157019126
 21
184.6372874469281
 31
0.0
  0
LINE
  5
141
330
1F
100
AcDbEntity
  8
0
100
AcDbLine
 10
170.4813157019126
 20
184.6372874469281
 30
0.0
 11
170.4813157019126
 21
224.6372874469281
 31
0.0
  0
LINE
  5
142
330
1F
100
AcDbEntity
  8
0
100
AcDbLine
 10
170.4813157019126
 20
224.6372874469281
 30
0.0
 11
150.4813157019126
 21
224.6372874469281
 31
0.0
  0
LINE
  5
143
330
1F
100
AcDbEntity
  8
0
100
AcDbLine
 10
150.4813157019126
 20
224.6372874469281
 30
0.0
 11
150.4813157019126
 21
144.6372874469281
 31
0.0
  0
VIEWPORT
  5
147
330
1B
100
AcDbEntity
 67
     1
  8
0
100
AcDbViewport
 10
121.9062347412108
 20
102.1562471389769
 30
0.0
 40
537.619771468099
 41
228.4221935424803
 68
     1
 69
     1
 12
121.9062347412108
 22
102.1562471389769
 13
0.0
 23
0.0
 14
10.0
 24
10.0
 15
10.0
 25
10.0
 16
0.0
 26
0.0
 36
1.0
 17
0.0
 27
0.0
 37
0.0
 42
50.0
 43
0.0
 44
0.0
 45
228.4221935424803
 50
0.0
 51
0.0
 72
   100
 90
    32800
  1

281
     0
 71
     1
 74
     0
110
0.0
120
0.0
130
0.0
111
1.0
121
0.0
131
0.0
112
0.0
122
1.0
132
0.0
 79
     0
146
0.0
  0
VIEWPORT
  5
149
330
1B
100
AcDbEntity
 67
     1
  8
0
100
AcDbViewport
 10
121.9062404632567
 20
102.1562485694885
 30
0.0
 40
195.0499847412108
 41
163.4499977111816
 68
     2
 69
     2
 12
168.8413270919523
 22
141.0828276740645
 13
0.0
 23
0.0
 14
10.0
 24
10.0
 15
10.0
 25
10.0
 16
0.0
 26
0.0
 36
1.0
 17
0.0
 27
0.0
 37
0.0
 42
50.0
 43
0.0
 44
0.0
 45
206.2089856619936
 50
0.0
 51
0.0
 72
   100
 90
    32864
  1

281
     0
 71
     1
 74
     0
110
0.0
120
0.0
130
0.0
111
1.0
121
0.0
131
0.0
112
0.0
122
1.0
132
0.0
 79
     0
146
0.0
  0
ENDSEC
  0
SECTION
  2
OBJECTS
  0
DICTIONARY
  5
C
330
0
100
AcDbDictionary
281
     1
  3
ACAD_GROUP
350
D
  3
ACAD_PLOTSTYLENAME
350
E
  3
ACAD_MLINESTYLE
350
17
  3
ACAD_PLOTSETTINGS
350
19
  3
ACAD_LAYOUT
350
1A
  3
DWGPROPS
350
16C
  0
DICTIONARY
  5
D
102
{ACAD_REACTORS
330
C
102
}
330
C
100
AcDbDictionary
281
     1
  0
ACDBDICTIONARYWDFLT
  5
E
102
{ACAD_REACTORS
330
C
102
}
330
C
100
AcDbDictionary
281
     1
  3
Normal
350
F
100
AcDbDictionaryWithDefault
340
F
  0
DICTIONARY
  5
17
102
{ACAD_REACTORS
330
C
102
}
330
C
100
AcDbDictionary
281
     1
  3
Standard
350
18
  0
DICTIONARY
  5
19
102
{ACAD_REACTORS
330
C
102
}
330
C
100
AcDbDictionary
281
     1
  0
DICTIONARY
  5
1A
102
{ACAD_REACTORS
330
C
102
}
330
C
100
AcDbDictionary
281
     1
  3
Layout1
350
1E
  3
Model
350
22
  3
Layout2
350
26
  0
XRECORD
  5
16C
102
{ACAD_REACTORS
330
C
102
}
330
C
100
AcDbXrecord
280
     1
  1
DWGPROPS COOKIE
  2
Hiss Reet Wandanschluß
  3
Hiss Reet Naturbaustoffe
  4
Philip Kullmann
  6
Fichtenholzleiste mit ausgefräster Nut ^M^Jzum Anschluss von Hiss Reet Wandelemente^M^Jan vorhandene Wände
  7
Trennwand, Zubehör, Naturbaustoffe
  8
Don Kulmao
  9

300
=
301
=
302
=
303
=
304
=
305
=
306
=
307
=
308
=
309
=
 40
0.0357571990740741
 41
2454207.415930983
 42
2454207.468117396
  1

 90
        0
  0
ACDBPLACEHOLDER
  5
F
102
{ACAD_REACTORS
330
E
102
}
330
E
  0
MLINESTYLE
  5
18
102
{ACAD_REACTORS
330
17
102
}
330
17
100
AcDbMlineStyle
  2
STANDARD
 70
     0
  3

 62
   256
 51
90.0
 52
90.0
 71
     2
 49
0.5
 62
   256
  6
BYLAYER
 49
-0.5
 62
   256
  6
BYLAYER
  0
LAYOUT
  5
1E
102
{ACAD_REACTORS
330
1A
102
}
330
1A
100
AcDbPlotSettings
  1

  2
DWF Classic.pc3
  4
ANSI_A_(8.50_x_11.00_Inches)
  6

 40
5.793749809265136
 41
17.79375076293945
 42
5.793746948242187
 43
17.79376220703125
 44
215.8999938964842
 45
279.3999938964843
 46
0.0
 47
0.0
 48
0.0
 49
0.0
140
0.0
141
0.0
142
1.0
143
1.0
 70
   688
 72
     1
 73
     1
 74
     5
  7

 75
    16
147
1.0
148
0.0
149
0.0
100
AcDbLayout
  1
Layout1
 70
     1
 71
     1
 10
-17.79376220703125
 20
-5.793749809265136
 11
261.606231689453
 21
210.1062440872192
 12
0.0
 22
0.0
 32
0.0
 14
24.38124809265135
 24
20.4312497138977
 34
0.0
 15
219.4312328338622
 25
183.8812474250793
 35
0.0
146
0.0
 13
0.0
 23
0.0
 33
0.0
 16
1.0
 26
0.0
 36
0.0
 17
0.0
 27
1.0
 37
0.0
 76
     0
330
1B
331
147
  0
LAYOUT
  5
22
102
{ACAD_REACTORS
330
1A
102
}
330
1A
100
AcDbPlotSettings
  1

  2
CutePDF Writer
  4
Letter
  6

 40
3.174999952316284
 41
3.174999952316284
 42
3.175003051757812
 43
3.17498779296875
 44
215.8999938964843
 45
279.3999938964843
 46
0.0
 47
0.0
 48
110.9997096786112
 49
35.66411599906041
140
224.1215062233338
141
249.5485443392691
142
1.0
143
0.7833159623580887
 70
 11952
 72
     1
 73
     0
 74
     4
  7

 75
     0
147
1.276624054729597
148
-110.9997096786112
149
-35.66411599906041
100
AcDbLayout
  1
Model
 70
     1
 71
     0
 10
0.0
 20
0.0
 11
12.0
 21
9.0
 12
0.0
 22
0.0
 32
0.0
 14
0.0
 24
0.0
 34
0.0
 15
0.0
 25
0.0
 35
0.0
146
0.0
 13
0.0
 23
0.0
 33
0.0
 16
1.0
 26
0.0
 36
0.0
 17
0.0
 27
1.0
 37
0.0
 76
     0
330
1F
  0
LAYOUT
  5
26
102
{ACAD_REACTORS
330
1A
102
}
330
1A
100
AcDbPlotSettings
  1

  2
C:\Programme\ACAD2000\plotters\DWF Classic.pc3
  4

  6

 40
0.0
 41
0.0
 42
0.0
 43
0.0
 44
0.0
 45
0.0
 46
0.0
 47
0.0
 48
0.0
 49
0.0
140
0.0
141
0.0
142
1.0
143
1.0
 70
   688
 72
     0
 73
     0
 74
     5
  7

 75
    16
147
1.0
148
0.0
149
0.0
100
AcDbLayout
  1
Layout2
 70
     1
 71
     2
 10
0.0
 20
0.0
 11
12.0
 21
9.0
 12
0.0
 22
0.0
 32
0.0
 14
0.0
 24
0.0
 34
0.0
 15
0.0
 25
0.0
 35
0.0
146
0.0
 13
0.0
 23
0.0
 33
0.0
 16
1.0
 26
0.0
 36
0.0
 17
0.0
 27
1.0
 37
0.0
 76
     0
330
23
  0
ENDSEC
  0
EOF
