  0
SECTION
  2
HEADER
  9
$ACADVER
  1
AC1015
  9
$ACADMAINTVER
 70
     6
  9
$DWGCODEPAGE
  3
ANSI_1252
  9
$INSBASE
 10
0.0
 20
0.0
 30
0.0
  9
$EXTMIN
 10
191.68960719152
 20
-9.787537335978356
 30
0.0
  9
$EXTMAX
 10
295.6797662421054
 20
261.4173475289764
 30
0.0
  9
$LIMMIN
 10
0.0
 20
0.0
  9
$LIMMAX
 10
420.0
 20
297.0
  9
$ORTHOMODE
 70
     0
  9
$REGENMODE
 70
     1
  9
$FILLMODE
 70
     1
  9
$QTEXTMODE
 70
     0
  9
$MIRRTEXT
 70
     1
  9
$LTSCALE
 40
1.0
  9
$ATTMODE
 70
     1
  9
$TEXTSIZE
 40
2.5
  9
$TRACEWID
 40
1.0
  9
$TEXTSTYLE
  7
Standard
  9
$CLAYER
  8
0
  9
$CELTYPE
  6
ByLayer
  9
$CECOLOR
 62
   256
  9
$CELTSCALE
 40
1.0
  9
$DISPSILH
 70
     0
  9
$DIMSCALE
 40
1.0
  9
$DIMASZ
 40
2.5
  9
$DIMEXO
 40
0.625
  9
$DIMDLI
 40
3.75
  9
$DIMRND
 40
0.0
  9
$DIMDLE
 40
0.0
  9
$DIMEXE
 40
1.25
  9
$DIMTP
 40
0.0
  9
$DIMTM
 40
0.0
  9
$DIMTXT
 40
2.5
  9
$DIMCEN
 40
2.5
  9
$DIMTSZ
 40
0.0
  9
$DIMTOL
 70
     0
  9
$DIMLIM
 70
     0
  9
$DIMTIH
 70
     0
  9
$DIMTOH
 70
     0
  9
$DIMSE1
 70
     0
  9
$DIMSE2
 70
     0
  9
$DIMTAD
 70
     1
  9
$DIMZIN
 70
     8
  9
$DIMBLK
  1

  9
$DIMASO
 70
     1
  9
$DIMSHO
 70
     1
  9
$DIMPOST
  1

  9
$DIMAPOST
  1

  9
$DIMALT
 70
     0
  9
$DIMALTD
 70
     3
  9
$DIMALTF
 40
0.03937007874016
  9
$DIMLFAC
 40
1.0
  9
$DIMTOFL
 70
     1
  9
$DIMTVP
 40
0.0
  9
$DIMTIX
 70
     0
  9
$DIMSOXD
 70
     0
  9
$DIMSAH
 70
     0
  9
$DIMBLK1
  1

  9
$DIMBLK2
  1

  9
$DIMSTYLE
  2
ISO-25
  9
$DIMCLRD
 70
     0
  9
$DIMCLRE
 70
     0
  9
$DIMCLRT
 70
     0
  9
$DIMTFAC
 40
1.0
  9
$DIMGAP
 40
0.625
  9
$DIMJUST
 70
     0
  9
$DIMSD1
 70
     0
  9
$DIMSD2
 70
     0
  9
$DIMTOLJ
 70
     0
  9
$DIMTZIN
 70
     8
  9
$DIMALTZ
 70
     0
  9
$DIMALTTZ
 70
     0
  9
$DIMUPT
 70
     0
  9
$DIMDEC
 70
     2
  9
$DIMTDEC
 70
     2
  9
$DIMALTU
 70
     2
  9
$DIMALTTD
 70
     3
  9
$DIMTXSTY
  7
Standard
  9
$DIMAUNIT
 70
     0
  9
$DIMADEC
 70
     0
  9
$DIMALTRND
 40
0.0
  9
$DIMAZIN
 70
     0
  9
$DIMDSEP
 70
    44
  9
$DIMATFIT
 70
     3
  9
$DIMFRAC
 70
     0
  9
$DIMLDRBLK
  1

  9
$DIMLUNIT
 70
     2
  9
$DIMLWD
 70
    -2
  9
$DIMLWE
 70
    -2
  9
$DIMTMOVE
 70
     0
  9
$LUNITS
 70
     2
  9
$LUPREC
 70
     4
  9
$SKETCHINC
 40
1.0
  9
$FILLETRAD
 40
10.0
  9
$AUNITS
 70
     0
  9
$AUPREC
 70
     0
  9
$MENU
  1
.
  9
$ELEVATION
 40
0.0
  9
$PELEVATION
 40
0.0
  9
$THICKNESS
 40
0.0
  9
$LIMCHECK
 70
     0
  9
$CHAMFERA
 40
10.0
  9
$CHAMFERB
 40
10.0
  9
$CHAMFERC
 40
20.0
  9
$CHAMFERD
 40
0.0
  9
$SKPOLY
 70
     0
  9
$TDCREATE
 40
2454207.406182361
  9
$TDUCREATE
 40
2454207.322849027
  9
$TDUPDATE
 40
2454207.468814733
  9
$TDUUPDATE
 40
2454207.385481400
  9
$TDINDWG
 40
0.0082119792
  9
$TDUSRTIMER
 40
0.0082116088
  9
$USRTIMER
 70
     1
  9
$ANGBASE
 50
0.0
  9
$ANGDIR
 70
     0
  9
$PDMODE
 70
     0
  9
$PDSIZE
 40
0.0
  9
$PLINEWID
 40
0.0
  9
$SPLFRAME
 70
     0
  9
$SPLINETYPE
 70
     6
  9
$SPLINESEGS
 70
     8
  9
$HANDSEED
  5
23D
  9
$SURFTAB1
 70
     6
  9
$SURFTAB2
 70
     6
  9
$SURFTYPE
 70
     6
  9
$SURFU
 70
     6
  9
$SURFV
 70
     6
  9
$UCSBASE
  2

  9
$UCSNAME
  2

  9
$UCSORG
 10
0.0
 20
0.0
 30
0.0
  9
$UCSXDIR
 10
1.0
 20
0.0
 30
0.0
  9
$UCSYDIR
 10
0.0
 20
1.0
 30
0.0
  9
$UCSORTHOREF
  2

  9
$UCSORTHOVIEW
 70
     0
  9
$UCSORGTOP
 10
0.0
 20
0.0
 30
0.0
  9
$UCSORGBOTTOM
 10
0.0
 20
0.0
 30
0.0
  9
$UCSORGLEFT
 10
0.0
 20
0.0
 30
0.0
  9
$UCSORGRIGHT
 10
0.0
 20
0.0
 30
0.0
  9
$UCSORGFRONT
 10
0.0
 20
0.0
 30
0.0
  9
$UCSORGBACK
 10
0.0
 20
0.0
 30
0.0
  9
$PUCSBASE
  2

  9
$PUCSNAME
  2

  9
$PUCSORG
 10
0.0
 20
0.0
 30
0.0
  9
$PUCSXDIR
 10
1.0
 20
0.0
 30
0.0
  9
$PUCSYDIR
 10
0.0
 20
1.0
 30
0.0
  9
$PUCSORTHOREF
  2

  9
$PUCSORTHOVIEW
 70
     0
  9
$PUCSORGTOP
 10
0.0
 20
0.0
 30
0.0
  9
$PUCSORGBOTTOM
 10
0.0
 20
0.0
 30
0.0
  9
$PUCSORGLEFT
 10
0.0
 20
0.0
 30
0.0
  9
$PUCSORGRIGHT
 10
0.0
 20
0.0
 30
0.0
  9
$PUCSORGFRONT
 10
0.0
 20
0.0
 30
0.0
  9
$PUCSORGBACK
 10
0.0
 20
0.0
 30
0.0
  9
$USERI1
 70
     0
  9
$USERI2
 70
     0
  9
$USERI3
 70
     0
  9
$USERI4
 70
     0
  9
$USERI5
 70
     0
  9
$USERR1
 40
0.0
  9
$USERR2
 40
0.0
  9
$USERR3
 40
0.0
  9
$USERR4
 40
0.0
  9
$USERR5
 40
0.0
  9
$WORLDVIEW
 70
     1
  9
$SHADEDGE
 70
     3
  9
$SHADEDIF
 70
    70
  9
$TILEMODE
 70
     1
  9
$MAXACTVP
 70
    64
  9
$PINSBASE
 10
0.0
 20
0.0
 30
0.0
  9
$PLIMCHECK
 70
     0
  9
$PEXTMIN
 10
24.38124809265135
 20
20.4312497138977
 30
0.0
  9
$PEXTMAX
 10
219.4312328338622
 20
183.8812474250793
 30
0.0
  9
$PLIMMIN
 10
-17.79376220703125
 20
-5.793749809265136
  9
$PLIMMAX
 10
261.606231689453
 20
210.1062440872192
  9
$UNITMODE
 70
     0
  9
$VISRETAIN
 70
     1
  9
$PLINEGEN
 70
     0
  9
$PSLTSCALE
 70
     1
  9
$TREEDEPTH
 70
  3020
  9
$CMLSTYLE
  2
Standard
  9
$CMLJUST
 70
     0
  9
$CMLSCALE
 40
20.0
  9
$PROXYGRAPHICS
 70
     1
  9
$MEASUREMENT
 70
     1
  9
$CELWEIGHT
370
    -1
  9
$ENDCAPS
280
     0
  9
$JOINSTYLE
280
     0
  9
$LWDISPLAY
290
     0
  9
$INSUNITS
 70
     4
  9
$HYPERLINKBASE
  1

  9
$STYLESHEET
  1

  9
$XEDIT
290
     1
  9
$CEPSNTYPE
380
     0
  9
$PSTYLEMODE
290
     1
  9
$FINGERPRINTGUID
  2
{07ACF19E-BAC0-482F-B460-769D4E4FC1A8}
  9
$VERSIONGUID
  2
{3FEC71DC-37C9-4D2F-8922-8532FAA6976A}
  9
$EXTNAMES
290
     1
  9
$PSVPSCALE
 40
0.0
  9
$OLESTARTUP
290
     0
  0
ENDSEC
  0
SECTION
  2
CLASSES
  0
CLASS
  1
ACDBDICTIONARYWDFLT
  2
AcDbDictionaryWithDefault
  3
AutoCAD 2000
 90
        0
280
     0
281
     0
  0
CLASS
  1
ACDBPLACEHOLDER
  2
AcDbPlaceHolder
  3
AutoCAD 2000
 90
        0
280
     0
281
     0
  0
CLASS
  1
LAYOUT
  2
AcDbLayout
  3
AutoCAD 2000
 90
        0
280
     0
281
     0
  0
ENDSEC
  0
SECTION
  2
TABLES
  0
TABLE
  2
VPORT
  5
8
330
0
100
AcDbSymbolTable
 70
     2
  0
VPORT
  5
23C
330
8
100
AcDbSymbolTableRecord
100
AcDbViewportTableRecord
  2
*Active
 70
     0
 10
0.0
 20
0.0
 11
1.0
 21
1.0
 12
346.3815703402482
 22
105.6619976524153
 13
0.0
 23
0.0
 14
10.0
 24
10.0
 15
10.0
 25
10.0
 16
0.0
 26
0.0
 36
1.0
 17
0.0
 27
0.0
 37
0.0
 40
321.4824406391304
 41
1.885245901639344
 42
50.0
 43
0.0
 44
0.0
 50
0.0
 51
0.0
 71
     0
 72
   100
 73
     1
 74
     3
 75
     0
 76
     0
 77
     0
 78
     0
281
     0
 65
     1
110
0.0
120
0.0
130
0.0
111
1.0
121
0.0
131
0.0
112
0.0
122
1.0
132
0.0
 79
     0
146
0.0
  0
ENDTAB
  0
TABLE
  2
LTYPE
  5
5
330
0
100
AcDbSymbolTable
 70
     1
  0
LTYPE
  5
14
330
5
100
AcDbSymbolTableRecord
100
AcDbLinetypeTableRecord
  2
ByBlock
 70
     0
  3

 72
    65
 73
     0
 40
0.0
  0
LTYPE
  5
15
330
5
100
AcDbSymbolTableRecord
100
AcDbLinetypeTableRecord
  2
ByLayer
 70
     0
  3

 72
    65
 73
     0
 40
0.0
  0
LTYPE
  5
16
330
5
100
AcDbSymbolTableRecord
100
AcDbLinetypeTableRecord
  2
Continuous
 70
     0
  3
Solid line
 72
    65
 73
     0
 40
0.0
  0
ENDTAB
  0
TABLE
  2
LAYER
  5
2
330
0
100
AcDbSymbolTable
 70
     2
  0
LAYER
  5
10
330
2
100
AcDbSymbolTableRecord
100
AcDbLayerTableRecord
  2
0
 70
     0
 62
     7
  6
Continuous
370
    -3
390
F
  0
LAYER
  5
78
330
2
100
AcDbSymbolTableRecord
100
AcDbLayerTableRecord
  2
Defpoints
 70
     0
 62
     7
  6
Continuous
290
     0
370
    -3
390
F
  0
ENDTAB
  0
TABLE
  2
STYLE
  5
3
330
0
100
AcDbSymbolTable
 70
     1
  0
STYLE
  5
11
330
3
100
AcDbSymbolTableRecord
100
AcDbTextStyleTableRecord
  2
Standard
 70
     0
 40
0.0
 41
1.0
 50
0.0
 71
     0
 42
2.5
  3
txt
  4

  0
ENDTAB
  0
TABLE
  2
VIEW
  5
6
330
0
100
AcDbSymbolTable
 70
     0
  0
ENDTAB
  0
TABLE
  2
UCS
  5
7
330
0
100
AcDbSymbolTable
 70
     0
  0
ENDTAB
  0
TABLE
  2
APPID
  5
9
330
0
100
AcDbSymbolTable
 70
     1
  0
APPID
  5
12
330
9
100
AcDbSymbolTableRecord
100
AcDbRegAppTableRecord
  2
ACAD
 70
     0
  0
ENDTAB
  0
TABLE
  2
DIMSTYLE
  5
A
330
0
100
AcDbSymbolTable
 70
     1
100
AcDbDimStyleTable
 71
     1
340
27
  0
DIMSTYLE
105
27
102
{ACAD_REACTORS
330
88
330
89
330
8A
330
8B
330
86
330
8C
102
}
330
A
100
AcDbSymbolTableRecord
100
AcDbDimStyleTableRecord
  2
ISO-25
 70
     0
 41
2.5
 42
0.625
 43
3.75
 44
1.25
 73
     0
 74
     0
 77
     1
 78
     8
140
2.5
141
2.5
143
0.03937007874016
147
0.625
171
     3
172
     1
271
     2
272
     2
274
     3
278
    44
283
     0
284
     8
340
11
  0
ENDTAB
  0
TABLE
  2
BLOCK_RECORD
  5
1
330
0
100
AcDbSymbolTable
 70
     8
  0
BLOCK_RECORD
  5
1F
330
1
100
AcDbSymbolTableRecord
100
AcDbBlockTableRecord
  2
*Model_Space
340
22
  0
BLOCK_RECORD
  5
1B
330
1
100
AcDbSymbolTableRecord
100
AcDbBlockTableRecord
  2
*Paper_Space
340
1E
  0
BLOCK_RECORD
  5
23
330
1
100
AcDbSymbolTableRecord
100
AcDbBlockTableRecord
  2
*Paper_Space0
340
26
  0
BLOCK_RECORD
  5
2B
330
1
100
AcDbSymbolTableRecord
100
AcDbBlockTableRecord
  2
Eckpfosten
340
0
310
2800000020000000200000000100080000000000000400000000000000000000000000000000000000000000000080000080000000808000800000008000800080800000C0C0C000C0DCC000F0CAA6000020400000206000002080000020A0000020C0000020E00000400000004020000040400000406000004080000040A0
310
000040C0000040E00000600000006020000060400000606000006080000060A0000060C0000060E00000800000008020000080400000806000008080000080A0000080C0000080E00000A0000000A0200000A0400000A0600000A0800000A0A00000A0C00000A0E00000C0000000C0200000C0400000C0600000C0800000C0
310
A00000C0C00000C0E00000E0000000E0200000E0400000E0600000E0800000E0A00000E0C00000E0E00040000000400020004000400040006000400080004000A0004000C0004000E00040200000402020004020400040206000402080004020A0004020C0004020E000404000004040200040404000404060004040800040
310
40A0004040C0004040E00040600000406020004060400040606000406080004060A0004060C0004060E00040800000408020004080400040806000408080004080A0004080C0004080E00040A0000040A0200040A0400040A0600040A0800040A0A00040A0C00040A0E00040C0000040C0200040C0400040C0600040C08000
310
40C0A00040C0C00040C0E00040E0000040E0200040E0400040E0600040E0800040E0A00040E0C00040E0E00080000000800020008000400080006000800080008000A0008000C0008000E00080200000802020008020400080206000802080008020A0008020C0008020E00080400000804020008040400080406000804080
310
008040A0008040C0008040E00080600000806020008060400080606000806080008060A0008060C0008060E00080800000808020008080400080806000808080008080A0008080C0008080E00080A0000080A0200080A0400080A0600080A0800080A0A00080A0C00080A0E00080C0000080C0200080C0400080C0600080C0
310
800080C0A00080C0C00080C0E00080E0000080E0200080E0400080E0600080E0800080E0A00080E0C00080E0E000C0000000C0002000C0004000C0006000C0008000C000A000C000C000C000E000C0200000C0202000C0204000C0206000C0208000C020A000C020C000C020E000C0400000C0402000C0404000C0406000C0
310
408000C040A000C040C000C040E000C0600000C0602000C0604000C0606000C0608000C060A000C060C000C060E000C0800000C0802000C0804000C0806000C0808000C080A000C080C000C080E000C0A00000C0A02000C0A04000C0A06000C0A08000C0A0A000C0A0C000C0A0E000C0C00000C0C02000C0C04000C0C06000
310
C0C08000C0C0A000F0FBFF00A4A0A000808080000000FF0000FF000000FFFF00FF000000FF00FF00FFFF0000FFFFFF00000000000000000000000000000000000000000000000000000000000000000000000000000000000000FFFFFFFFFFFFFFFFFFFFFFFFFFFFFFFFFFFF0000000000000000000000000000FF00FFFFFF
310
00FFFFFFFF00FFFFFFFF00FFFF0000000000000000000000000000FFFF00FFFFFF00FFFFFFFF00FFFFFFFFFFFF0000000000000000000000000000FFFFFF00FFFFFF00FFFFFFFF00FFFFFFFFFF0000000000000000000000000000FFFFFFFF00FFFFFF00FFFFFFFF00FFFFFFFF0000000000000000000000000000FF00FFFF
310
FF00FFFFFF00FFFFFFFFFF00FFFF0000000000000000000000000000FFFF00FFFFFF00FFFFFF00FFFFFFFFFF00FF0000000000000000000000000000FFFFFF00FFFFFF00FFFFFFFF00FFFFFFFFFF0000000000000000000000000000FFFFFFFF00FFFFFF00FFFFFFFF00FFFFFFFF0000000000000000000000000000FFFFFF
310
FFFF00FFFFFF00FFFFFFFF00FFFFFF0000000000000000000000000000FF00FFFFFFFF00FFFFFF00FFFFFFFF00FFFF0000000000000000000000000000FFFF00FFFFFFFF00FFFFFF00FFFFFFFF00FF0000000000000000FFFFFFFFFFFFFFFFFF00FFFFFFFF00FFFFFF00FFFFFFFFFF0000000000000000FFFF00FFFFFFFF00
310
FFFF00FFFFFFFF00FFFFFF00FFFFFFFF0000000000000000FFFFFF00FFFFFFFF00FFFF00FFFFFFFF00FFFFFF00FFFFFF0000000000000000FFFFFFFF00FFFFFFFF00FFFF00FFFFFFFF00FFFFFF00FFFF0000000000000000FFFFFFFFFF00FFFFFFFF00FFFF00FFFFFFFF00FFFFFF00FF0000000000000000FF00FFFFFFFF00
310
FFFFFFFF00FFFF00FFFFFFFF00FFFFFFFF0000000000000000FFFF00FFFFFFFF00FFFFFFFF00FFFF00FFFFFFFF00FFFFFF0000000000000000FFFFFF00FFFFFFFF00FFFFFFFF00FFFF00FFFFFFFF00FFFF0000000000000000FFFFFFFFFFFFFFFFFF00FFFFFFFF00FFFF00FFFFFFFF00FF0000000000000000FFFFFFFF00FF
310
FFFFFFFFFF00FFFFFF00FFFF00FFFFFFFFFF0000000000000000FF00FFFFFF00FFFFFFFFFFFF00FFFFFF00FFFF00FFFFFFFF0000000000000000FFFFFFFFFFFFFFFFFFFFFFFFFF00FFFFFF00FFFF00FFFFFF0000000000000000000000000000000000000000FFFF00FFFFFF00FFFF00FFFF00000000000000000000000000
310
000000000000FFFFFFFF00FFFFFF00FFFF00FF0000000000000000000000000000000000000000FF00FFFF00FFFFFF00FFFFFF00000000000000000000000000000000000000FF00FFFFFFFF00FFFFFF00FFFF00000000000000000000000000000000000000FFFF00FFFFFFFF00FFFFFF00FF000000000000000000000000
310
00000000000000FFFFFFFFFFFFFFFFFFFFFFFFFF000000000000000000000000000000000000000000000000000000000000000000000000
102
{BLKREFS
331
85
331
199
102
}
1001
ACAD
1000
DesignCenter Data
1002
{
1070
     1
1070
     4
1002
}
  0
BLOCK_RECORD
  5
8D
330
1
100
AcDbSymbolTableRecord
100
AcDbBlockTableRecord
  2
*D2
340
0
  0
BLOCK_RECORD
  5
99
330
1
100
AcDbSymbolTableRecord
100
AcDbBlockTableRecord
  2
*D3
340
0
  0
BLOCK_RECORD
  5
A5
330
1
100
AcDbSymbolTableRecord
100
AcDbBlockTableRecord
  2
*D4
340
0
  0
BLOCK_RECORD
  5
B1
330
1
100
AcDbSymbolTableRecord
100
AcDbBlockTableRecord
  2
*D5
340
0
  0
BLOCK_RECORD
  5
BD
330
1
100
AcDbSymbolTableRecord
100
AcDbBlockTableRecord
  2
*D6
340
0
  0
BLOCK_RECORD
  5
C9
330
1
100
AcDbSymbolTableRecord
100
AcDbBlockTableRecord
  2
*D7
340
0
  0
ENDTAB
  0
ENDSEC
  0
SECTION
  2
BLOCKS
  0
BLOCK
  5
20
330
1F
100
AcDbEntity
  8
0
100
AcDbBlockBegin
  2
*Model_Space
 70
     0
 10
0.0
 20
0.0
 30
0.0
  3
*Model_Space
  1

  0
ENDBLK
  5
21
330
1F
100
AcDbEntity
  8
0
100
AcDbBlockEnd
  0
BLOCK
  5
1C
330
1B
100
AcDbEntity
 67
     1
  8
0
100
AcDbBlockBegin
  2
*Paper_Space
 70
     0
 10
0.0
 20
0.0
 30
0.0
  3
*Paper_Space
  1

  0
ENDBLK
  5
1D
330
1B
100
AcDbEntity
 67
     1
  8
0
100
AcDbBlockEnd
  0
BLOCK
  5
24
330
23
100
AcDbEntity
  8
0
100
AcDbBlockBegin
  2
*Paper_Space0
 70
     0
 10
0.0
 20
0.0
 30
0.0
  3
*Paper_Space0
  1

  0
ENDBLK
  5
25
330
23
100
AcDbEntity
  8
0
100
AcDbBlockEnd
  0
BLOCK
  5
2E
330
2B
100
AcDbEntity
  8
0
370
    25
100
AcDbBlockBegin
  2
Eckpfosten
 70
     0
 10
0.0
 20
0.0
 30
0.0
  3
Eckpfosten
  1

  0
LWPOLYLINE
  5
2C
102
{ACAD_REACTORS
330
2D
102
}
330
2B
100
AcDbEntity
  8
0
370
    25
100
AcDbPolyline
 90
        9
 70
     0
 43
0.0
 10
-20.01268228281515
 20
427.2061798158465
 10
-20.01268228281492
 20
327.2061798158456
 10
-80.01268228281492
 20
327.2061798158464
 10
-80.01268228281492
 20
367.2061798158464
 10
-100.0126822828149
 20
367.2061798158464
 10
-100.0126822828149
 20
407.2061798158465
 10
-60.01268228281492
 20
407.2061798158465
 10
-60.01268228281515
 20
427.2061798158465
 10
-20.01268228281515
 20
427.2061798158465
  0
HATCH
  5
2D
330
2B
100
AcDbEntity
  8
0
370
    25
100
AcDbHatch
 10
0.0
 20
0.0
 30
0.0
210
0.0
220
0.0
230
1.0
  2
ANSI31
 70
     0
 71
     1
 91
        1
 92
        1
 93
        8
 72
     1
 10
-20.01268228281515
 20
427.2061798158465
 11
-20.01268228281492
 21
327.2061798158456
 72
     1
 10
-20.01268228281492
 20
327.2061798158456
 11
-80.01268228281492
 21
327.2061798158464
 72
     1
 10
-80.01268228281492
 20
327.2061798158464
 11
-80.01268228281492
 21
367.2061798158464
 72
     1
 10
-80.01268228281492
 20
367.2061798158464
 11
-100.0126822828149
 21
367.2061798158464
 72
     1
 10
-100.0126822828149
 20
367.2061798158464
 11
-100.0126822828149
 21
407.2061798158465
 72
     1
 10
-100.0126822828149
 20
407.2061798158465
 11
-60.01268228281492
 21
407.2061798158465
 72
     1
 10
-60.01268228281492
 20
407.2061798158465
 11
-60.01268228281515
 21
427.2061798158465
 72
     1
 10
-60.01268228281515
 20
427.2061798158465
 11
-20.01268228281515
 21
427.2061798158465
 97
        1
330
2C
 75
     0
 76
     1
 52
0.0
 41
1.0
 77
     0
 78
     1
 53
45.0
 43
0.0
 44
0.0
 45
-2.245064030267287
 46
2.245064030267287
 79
     0
 98
        1
 10
0.0
 20
0.0
  0
ENDBLK
  5
2F
330
2B
100
AcDbEntity
  8
0
370
    25
100
AcDbBlockEnd
  0
BLOCK
  5
97
330
8D
100
AcDbEntity
  8
0
100
AcDbBlockBegin
  2
*D2
 70
     1
 10
0.0
 20
0.0
 30
0.0
  3
*D2
  1

  0
LINE
  5
12F
330
8D
100
AcDbEntity
  8
0
 62
     0
370
    -2
100
AcDbLine
 10
255.0547662421052
 20
241.4738627333765
 30
0.0
 11
198.56460719152
 21
241.4738627333765
 31
0.0
  0
LINE
  5
130
330
8D
100
AcDbEntity
  8
0
 62
     0
370
    -2
100
AcDbLine
 10
255.0547662421054
 20
221.4738627333765
 30
0.0
 11
198.56460719152
 21
221.4738627333765
 31
0.0
  0
LINE
  5
131
330
8D
100
AcDbEntity
  8
0
 62
     0
370
    -2
100
AcDbLine
 10
199.81460719152
 20
238.9738627333765
 30
0.0
 11
199.81460719152
 21
223.9738627333764
 31
0.0
  0
SOLID
  5
132
330
8D
100
AcDbEntity
  8
0
 62
     0
100
AcDbTrace
 10
199.3979405248533
 20
238.9738627333765
 30
0.0
 11
200.2312738581866
 21
238.9738627333765
 31
0.0
 12
199.81460719152
 22
241.4738627333765
 32
0.0
 13
199.81460719152
 23
241.4738627333765
 33
0.0
  0
SOLID
  5
133
330
8D
100
AcDbEntity
  8
0
 62
     0
100
AcDbTrace
 10
199.3979405248533
 20
223.9738627333764
 30
0.0
 11
200.2312738581866
 21
223.9738627333764
 31
0.0
 12
199.81460719152
 22
221.4738627333765
 32
0.0
 13
199.81460719152
 23
221.4738627333765
 33
0.0
  0
MTEXT
  5
134
330
8D
100
AcDbEntity
  8
0
 62
     0
370
    25
100
AcDbMText
 10
195.43960719152
 20
231.4738627333766
 30
0.0
 40
7.5
 41
0.0
 71
     5
 72
     1
  1
20
 11
0.0000000000000001
 21
1.0
 31
0.0
 73
     1
 44
1.0
  0
POINT
  5
135
330
8D
100
AcDbEntity
  8
Defpoints
 62
     0
100
AcDbPoint
 10
255.679766242105
 20
241.4738627333765
 30
0.0
  0
POINT
  5
136
330
8D
100
AcDbEntity
  8
Defpoints
 62
     0
100
AcDbPoint
 10
255.6797662421053
 20
221.4738627333765
 30
0.0
  0
POINT
  5
137
330
8D
100
AcDbEntity
  8
Defpoints
 62
     0
100
AcDbPoint
 10
199.81460719152
 20
221.4738627333765
 30
0.0
  0
ENDBLK
  5
98
330
8D
100
AcDbEntity
  8
0
100
AcDbBlockEnd
  0
BLOCK
  5
A3
330
99
100
AcDbEntity
  8
0
100
AcDbBlockBegin
  2
*D3
 70
     1
 10
0.0
 20
0.0
 30
0.0
  3
*D3
  1

  0
LINE
  5
10B
330
99
100
AcDbEntity
  8
0
 62
     0
370
    -2
100
AcDbLine
 10
295.6797662421053
 20
140.8488627333755
 30
0.0
 11
295.6797662421053
 21
126.9661071949824
 31
0.0
  0
LINE
  5
10C
330
99
100
AcDbEntity
  8
0
 62
     0
370
    -2
100
AcDbLine
 10
235.6797662421054
 20
140.8488627333765
 30
0.0
 11
235.6797662421054
 21
126.9661071949824
 31
0.0
  0
LINE
  5
10D
330
99
100
AcDbEntity
  8
0
 62
     0
370
    -2
100
AcDbLine
 10
293.1797662421053
 20
128.2161071949824
 30
0.0
 11
238.1797662421054
 21
128.2161071949824
 31
0.0
  0
SOLID
  5
10E
330
99
100
AcDbEntity
  8
0
 62
     0
100
AcDbTrace
 10
293.1797662421053
 20
128.6327738616491
 30
0.0
 11
293.1797662421053
 21
127.7994405283157
 31
0.0
 12
295.6797662421053
 22
128.2161071949824
 32
0.0
 13
295.6797662421053
 23
128.2161071949824
 33
0.0
  0
SOLID
  5
10F
330
99
100
AcDbEntity
  8
0
 62
     0
100
AcDbTrace
 10
238.1797662421054
 20
128.6327738616491
 30
0.0
 11
238.1797662421054
 21
127.7994405283157
 31
0.0
 12
235.6797662421054
 22
128.2161071949824
 32
0.0
 13
235.6797662421054
 23
128.2161071949824
 33
0.0
  0
MTEXT
  5
110
330
99
100
AcDbEntity
  8
0
 62
     0
370
    25
100
AcDbMText
 10
265.6797662421054
 20
132.5911071949824
 30
0.0
 40
7.5
 41
0.0
 71
     5
 72
     1
  1
60
 73
     1
 44
1.0
  0
POINT
  5
111
330
99
100
AcDbEntity
  8
Defpoints
 62
     0
100
AcDbPoint
 10
295.6797662421053
 20
141.4738627333756
 30
0.0
  0
POINT
  5
112
330
99
100
AcDbEntity
  8
Defpoints
 62
     0
100
AcDbPoint
 10
235.6797662421054
 20
141.4738627333765
 30
0.0
  0
POINT
  5
113
330
99
100
AcDbEntity
  8
Defpoints
 62
     0
100
AcDbPoint
 10
235.6797662421054
 20
128.2161071949824
 30
0.0
  0
ENDBLK
  5
A4
330
99
100
AcDbEntity
  8
0
100
AcDbBlockEnd
  0
BLOCK
  5
AF
330
A5
100
AcDbEntity
  8
0
100
AcDbBlockBegin
  2
*D4
 70
     1
 10
0.0
 20
0.0
 30
0.0
  3
*D4
  1

  0
LINE
  5
114
330
A5
100
AcDbEntity
  8
0
 62
     0
370
    -2
100
AcDbLine
 10
215.0547662421053
 20
181.4738627333765
 30
0.0
 11
198.6354195843398
 21
181.4738627333765
 31
0.0
  0
LINE
  5
115
330
A5
100
AcDbEntity
  8
0
 62
     0
370
    -2
100
AcDbLine
 10
235.0547662421054
 20
141.4738627333765
 30
0.0
 11
198.6354195843398
 21
141.4738627333765
 31
0.0
  0
LINE
  5
116
330
A5
100
AcDbEntity
  8
0
 62
     0
370
    -2
100
AcDbLine
 10
199.8854195843398
 20
178.9738627333765
 30
0.0
 11
199.8854195843398
 21
143.9738627333765
 31
0.0
  0
SOLID
  5
117
330
A5
100
AcDbEntity
  8
0
 62
     0
100
AcDbTrace
 10
199.468752917673
 20
178.9738627333765
 30
0.0
 11
200.3020862510064
 21
178.9738627333765
 31
0.0
 12
199.8854195843398
 22
181.4738627333765
 32
0.0
 13
199.8854195843398
 23
181.4738627333765
 33
0.0
  0
SOLID
  5
118
330
A5
100
AcDbEntity
  8
0
 62
     0
100
AcDbTrace
 10
199.468752917673
 20
143.9738627333765
 30
0.0
 11
200.3020862510064
 21
143.9738627333765
 31
0.0
 12
199.8854195843398
 22
141.4738627333765
 32
0.0
 13
199.8854195843398
 23
141.4738627333765
 33
0.0
  0
MTEXT
  5
119
330
A5
100
AcDbEntity
  8
0
 62
     0
370
    25
100
AcDbMText
 10
195.5104195843398
 20
161.4738627333766
 30
0.0
 40
7.5
 41
0.0
 71
     5
 72
     1
  1
40
 11
0.0000000000000001
 21
1.0
 31
0.0
 73
     1
 44
1.0
  0
POINT
  5
11A
330
A5
100
AcDbEntity
  8
Defpoints
 62
     0
100
AcDbPoint
 10
215.6797662421054
 20
181.4738627333765
 30
0.0
  0
POINT
  5
11B
330
A5
100
AcDbEntity
  8
Defpoints
 62
     0
100
AcDbPoint
 10
235.6797662421054
 20
141.4738627333765
 30
0.0
  0
POINT
  5
11C
330
A5
100
AcDbEntity
  8
Defpoints
 62
     0
100
AcDbPoint
 10
199.8854195843398
 20
141.4738627333765
 30
0.0
  0
ENDBLK
  5
B0
330
A5
100
AcDbEntity
  8
0
100
AcDbBlockEnd
  0
BLOCK
  5
BB
330
B1
100
AcDbEntity
  8
0
100
AcDbBlockBegin
  2
*D5
 70
     1
 10
0.0
 20
0.0
 30
0.0
  3
*D5
  1

  0
LINE
  5
11D
330
B1
100
AcDbEntity
  8
0
 62
     0
370
    -2
100
AcDbLine
 10
215.6797662421054
 20
180.8488627333765
 30
0.0
 11
215.6797662421054
 21
168.3436904419334
 31
0.0
  0
LINE
  5
11E
330
B1
100
AcDbEntity
  8
0
 62
     0
370
    -2
100
AcDbLine
 10
235.6797662421054
 20
180.8488627333765
 30
0.0
 11
235.6797662421054
 21
168.3436904419334
 31
0.0
  0
LINE
  5
11F
330
B1
100
AcDbEntity
  8
0
 62
     0
370
    -2
100
AcDbLine
 10
218.1797662421053
 20
169.5936904419333
 30
0.0
 11
233.1797662421054
 21
169.5936904419333
 31
0.0
  0
SOLID
  5
120
330
B1
100
AcDbEntity
  8
0
 62
     0
100
AcDbTrace
 10
218.1797662421053
 20
170.0103571086
 30
0.0
 11
218.1797662421053
 21
169.1770237752666
 31
0.0
 12
215.6797662421054
 22
169.5936904419333
 32
0.0
 13
215.6797662421054
 23
169.5936904419333
 33
0.0
  0
SOLID
  5
121
330
B1
100
AcDbEntity
  8
0
 62
     0
100
AcDbTrace
 10
233.1797662421054
 20
170.0103571086
 30
0.0
 11
233.1797662421054
 21
169.1770237752666
 31
0.0
 12
235.6797662421054
 22
169.5936904419333
 32
0.0
 13
235.6797662421054
 23
169.5936904419333
 33
0.0
  0
MTEXT
  5
122
330
B1
100
AcDbEntity
  8
0
 62
     0
370
    25
100
AcDbMText
 10
225.6797662421054
 20
173.9686904419334
 30
0.0
 40
7.5
 41
0.0
 71
     5
 72
     1
  1
20
 73
     1
 44
1.0
  0
POINT
  5
123
330
B1
100
AcDbEntity
  8
Defpoints
 62
     0
100
AcDbPoint
 10
215.6797662421054
 20
181.4738627333765
 30
0.0
  0
POINT
  5
124
330
B1
100
AcDbEntity
  8
Defpoints
 62
     0
100
AcDbPoint
 10
235.6797662421054
 20
181.4738627333765
 30
0.0
  0
POINT
  5
125
330
B1
100
AcDbEntity
  8
Defpoints
 62
     0
100
AcDbPoint
 10
235.6797662421054
 20
169.5936904419333
 30
0.0
  0
ENDBLK
  5
BC
330
B1
100
AcDbEntity
  8
0
100
AcDbBlockEnd
  0
BLOCK
  5
C7
330
BD
100
AcDbEntity
  8
0
100
AcDbBlockBegin
  2
*D6
 70
     1
 10
0.0
 20
0.0
 30
0.0
  3
*D6
  1

  0
LINE
  5
126
330
BD
100
AcDbEntity
  8
0
 62
     0
370
    -2
100
AcDbLine
 10
215.0547662421053
 20
221.4738627333765
 30
0.0
 11
198.5881968679989
 21
221.4738627333765
 31
0.0
  0
LINE
  5
127
330
BD
100
AcDbEntity
  8
0
 62
     0
370
    -2
100
AcDbLine
 10
215.0547662421053
 20
181.4738627333765
 30
0.0
 11
198.5881968679989
 21
181.4738627333765
 31
0.0
  0
LINE
  5
128
330
BD
100
AcDbEntity
  8
0
 62
     0
370
    -2
100
AcDbLine
 10
199.8381968679989
 20
218.9738627333765
 30
0.0
 11
199.8381968679989
 21
183.9738627333765
 31
0.0
  0
SOLID
  5
129
330
BD
100
AcDbEntity
  8
0
 62
     0
100
AcDbTrace
 10
199.4215302013323
 20
218.9738627333765
 30
0.0
 11
200.2548635346656
 21
218.9738627333765
 31
0.0
 12
199.8381968679989
 22
221.4738627333765
 32
0.0
 13
199.8381968679989
 23
221.4738627333765
 33
0.0
  0
SOLID
  5
12A
330
BD
100
AcDbEntity
  8
0
 62
     0
100
AcDbTrace
 10
199.4215302013321
 20
183.9738627333765
 30
0.0
 11
200.2548635346655
 21
183.9738627333765
 31
0.0
 12
199.8381968679989
 22
181.4738627333765
 32
0.0
 13
199.8381968679989
 23
181.4738627333765
 33
0.0
  0
MTEXT
  5
12B
330
BD
100
AcDbEntity
  8
0
 62
     0
370
    25
100
AcDbMText
 10
195.4631968679989
 20
201.4738627333765
 30
0.0
 40
7.5
 41
0.0
 71
     5
 72
     1
  1
40
 11
0.0000000000000001
 21
1.0
 31
0.0
 73
     1
 44
1.0
  0
POINT
  5
12C
330
BD
100
AcDbEntity
  8
Defpoints
 62
     0
100
AcDbPoint
 10
215.6797662421054
 20
221.4738627333765
 30
0.0
  0
POINT
  5
12D
330
BD
100
AcDbEntity
  8
Defpoints
 62
     0
100
AcDbPoint
 10
215.6797662421054
 20
181.4738627333765
 30
0.0
  0
POINT
  5
12E
330
BD
100
AcDbEntity
  8
Defpoints
 62
     0
100
AcDbPoint
 10
199.8381968679989
 20
181.4738627333765
 30
0.0
  0
ENDBLK
  5
C8
330
BD
100
AcDbEntity
  8
0
100
AcDbBlockEnd
  0
BLOCK
  5
D3
330
C9
100
AcDbEntity
  8
0
100
AcDbBlockBegin
  2
*D7
 70
     1
 10
0.0
 20
0.0
 30
0.0
  3
*D7
  1

  0
LINE
  5
138
330
C9
100
AcDbEntity
  8
0
 62
     0
370
    -2
100
AcDbLine
 10
295.6797662421052
 20
242.0988627333765
 30
0.0
 11
295.6797662421052
 21
254.5423475289765
 31
0.0
  0
LINE
  5
139
330
C9
100
AcDbEntity
  8
0
 62
     0
370
    -2
100
AcDbLine
 10
255.679766242105
 20
242.0988627333765
 30
0.0
 11
255.679766242105
 21
254.5423475289765
 31
0.0
  0
LINE
  5
13A
330
C9
100
AcDbEntity
  8
0
 62
     0
370
    -2
100
AcDbLine
 10
293.1797662421051
 20
253.2923475289765
 30
0.0
 11
258.1797662421052
 21
253.2923475289765
 31
0.0
  0
SOLID
  5
13B
330
C9
100
AcDbEntity
  8
0
 62
     0
100
AcDbTrace
 10
293.1797662421051
 20
253.709014195643
 30
0.0
 11
293.1797662421051
 21
252.8756808623097
 31
0.0
 12
295.6797662421052
 22
253.2923475289765
 32
0.0
 13
295.6797662421052
 23
253.2923475289765
 33
0.0
  0
SOLID
  5
13C
330
C9
100
AcDbEntity
  8
0
 62
     0
100
AcDbTrace
 10
258.1797662421052
 20
253.709014195643
 30
0.0
 11
258.1797662421052
 21
252.8756808623097
 31
0.0
 12
255.679766242105
 22
253.2923475289765
 32
0.0
 13
255.679766242105
 23
253.2923475289765
 33
0.0
  0
MTEXT
  5
13D
330
C9
100
AcDbEntity
  8
0
 62
     0
370
    25
100
AcDbMText
 10
275.679766242105
 20
257.6673475289765
 30
0.0
 40
7.5
 41
0.0
 71
     5
 72
     1
  1
40
 73
     1
 44
1.0
  0
POINT
  5
13E
330
C9
100
AcDbEntity
  8
Defpoints
 62
     0
100
AcDbPoint
 10
295.6797662421052
 20
241.4738627333765
 30
0.0
  0
POINT
  5
13F
330
C9
100
AcDbEntity
  8
Defpoints
 62
     0
100
AcDbPoint
 10
255.679766242105
 20
241.4738627333765
 30
0.0
  0
POINT
  5
140
330
C9
100
AcDbEntity
  8
Defpoints
 62
     0
100
AcDbPoint
 10
255.679766242105
 20
253.2923475289765
 30
0.0
  0
ENDBLK
  5
D4
330
C9
100
AcDbEntity
  8
0
100
AcDbBlockEnd
  0
ENDSEC
  0
SECTION
  2
ENTITIES
  0
DIMENSION
  5
86
330
1F
100
AcDbEntity
  8
0
370
    25
100
AcDbDimension
  2
*D2
 10
199.81460719152
 20
221.4738627333765
 30
0.0
 11
195.43960719152
 21
231.4738627333766
 31
0.0
 70
    32
 71
     5
 42
20.0
  3
ISO-25
100
AcDbAlignedDimension
 13
255.679766242105
 23
241.4738627333765
 33
0.0
 14
255.6797662421053
 24
221.4738627333765
 34
0.0
 50
90.0
100
AcDbRotatedDimension
1001
ACAD
1000
DSTYLE
1002
{
1070
   140
1040
7.5
1002
}
  0
DIMENSION
  5
88
330
1F
100
AcDbEntity
  8
0
370
    25
100
AcDbDimension
  2
*D3
 10
235.6797662421054
 20
128.2161071949824
 30
0.0
 11
265.6797662421054
 21
132.5911071949824
 31
0.0
 70
    32
 71
     5
 42
60.0
  3
ISO-25
100
AcDbAlignedDimension
 13
295.6797662421053
 23
141.4738627333756
 33
0.0
 14
235.6797662421054
 24
141.4738627333765
 34
0.0
100
AcDbRotatedDimension
1001
ACAD
1000
DSTYLE
1002
{
1070
   140
1040
7.5
1002
}
  0
DIMENSION
  5
89
330
1F
100
AcDbEntity
  8
0
370
    25
100
AcDbDimension
  2
*D4
 10
199.8854195843398
 20
141.4738627333765
 30
0.0
 11
195.5104195843398
 21
161.4738627333766
 31
0.0
 70
    32
 71
     5
 42
40.0
  3
ISO-25
100
AcDbAlignedDimension
 13
215.6797662421054
 23
181.4738627333765
 33
0.0
 14
235.6797662421054
 24
141.4738627333765
 34
0.0
 50
90.0
100
AcDbRotatedDimension
1001
ACAD
1000
DSTYLE
1002
{
1070
   140
1040
7.5
1002
}
  0
DIMENSION
  5
8A
330
1F
100
AcDbEntity
  8
0
370
    25
100
AcDbDimension
  2
*D5
 10
235.6797662421054
 20
169.5936904419333
 30
0.0
 11
225.6797662421054
 21
173.9686904419334
 31
0.0
 70
    32
 71
     5
 42
20.0
  3
ISO-25
100
AcDbAlignedDimension
 13
215.6797662421054
 23
181.4738627333765
 33
0.0
 14
235.6797662421054
 24
181.4738627333765
 34
0.0
100
AcDbRotatedDimension
1001
ACAD
1000
DSTYLE
1002
{
1070
   140
1040
7.5
1002
}
  0
DIMENSION
  5
8B
330
1F
100
AcDbEntity
  8
0
370
    25
100
AcDbDimension
  2
*D6
 10
199.8381968679989
 20
181.4738627333765
 30
0.0
 11
195.4631968679989
 21
201.4738627333765
 31
0.0
 70
    32
 71
     5
 42
40.0
  3
ISO-25
100
AcDbAlignedDimension
 13
215.6797662421054
 23
221.4738627333765
 33
0.0
 14
215.6797662421054
 24
181.4738627333765
 34
0.0
 50
90.0
100
AcDbRotatedDimension
1001
ACAD
1000
DSTYLE
1002
{
1070
   140
1040
7.5
1002
}
  0
DIMENSION
  5
8C
330
1F
100
AcDbEntity
  8
0
370
    25
100
AcDbDimension
  2
*D7
 10
255.679766242105
 20
253.2923475289765
 30
0.0
 11
275.679766242105
 21
257.6673475289765
 31
0.0
 70
    32
 71
     5
 42
40.0
  3
ISO-25
100
AcDbAlignedDimension
 13
295.6797662421052
 23
241.4738627333765
 33
0.0
 14
255.679766242105
 24
241.4738627333765
 34
0.0
100
AcDbRotatedDimension
1001
ACAD
1000
DSTYLE
1002
{
1070
   140
1040
7.5
1002
}
  0
INSERT
  5
199
330
1F
100
AcDbEntity
  8
0
370
    25
100
AcDbBlockReference
  2
Eckpfosten
 10
315.4689993119848
 20
-336.993717151824
 30
0.0
  0
HATCH
  5
232
330
1F
100
AcDbEntity
  8
0
370
    25
100
AcDbHatch
 10
0.0
 20
0.0
 30
0.0
210
0.0
220
0.0
230
1.0
  2
ANSI31
 70
     0
 71
     0
 91
        1
 92
        1
 93
        8
 72
     1
 10
295.6797662421052
 20
241.4738627333765
 11
295.6797662421054
 21
141.4738627333756
 72
     1
 10
295.6797662421054
 20
141.4738627333756
 11
235.6797662421054
 21
141.4738627333765
 72
     1
 10
235.6797662421054
 20
141.4738627333765
 11
235.6797662421054
 21
181.4738627333765
 72
     1
 10
235.6797662421054
 20
181.4738627333765
 11
215.6797662421054
 21
181.4738627333765
 72
     1
 10
215.6797662421054
 20
181.4738627333765
 11
215.6797662421054
 21
221.4738627333765
 72
     1
 10
215.6797662421054
 20
221.4738627333765
 11
255.6797662421053
 21
221.4738627333765
 72
     1
 10
255.6797662421053
 20
221.4738627333765
 11
255.6797662421051
 21
241.4738627333765
 72
     1
 10
255.6797662421051
 20
241.4738627333765
 11
295.6797662421052
 21
241.4738627333765
 97
        0
 75
     0
 76
     1
 52
0.0
 41
1.0
 77
     0
 78
     1
 53
45.0
 43
315.6924485249203
 44
-185.73231708247
 45
-2.245064030267287
 46
2.245064030267287
 79
     0
 98
        1
 10
315.6924485249203
 20
-185.73231708247
  0
LINE
  5
233
330
1F
100
AcDbEntity
  8
0
370
    25
100
AcDbLine
 10
295.6797662421052
 20
241.4738627333765
 30
0.0
 11
295.6797662421054
 21
141.4738627333756
 31
0.0
  0
LINE
  5
234
330
1F
100
AcDbEntity
  8
0
370
    25
100
AcDbLine
 10
295.6797662421054
 20
141.4738627333756
 30
0.0
 11
235.6797662421054
 21
141.4738627333765
 31
0.0
  0
LINE
  5
235
330
1F
100
AcDbEntity
  8
0
370
    25
100
AcDbLine
 10
235.6797662421054
 20
141.4738627333765
 30
0.0
 11
235.6797662421054
 21
181.4738627333765
 31
0.0
  0
LINE
  5
236
330
1F
100
AcDbEntity
  8
0
370
    25
100
AcDbLine
 10
235.6797662421054
 20
181.4738627333765
 30
0.0
 11
215.6797662421054
 21
181.4738627333765
 31
0.0
  0
LINE
  5
237
330
1F
100
AcDbEntity
  8
0
370
    25
100
AcDbLine
 10
215.6797662421054
 20
181.4738627333765
 30
0.0
 11
215.6797662421054
 21
221.4738627333765
 31
0.0
  0
LINE
  5
238
330
1F
100
AcDbEntity
  8
0
370
    25
100
AcDbLine
 10
215.6797662421054
 20
221.4738627333765
 30
0.0
 11
255.6797662421053
 21
221.4738627333765
 31
0.0
  0
LINE
  5
239
330
1F
100
AcDbEntity
  8
0
370
    25
100
AcDbLine
 10
255.6797662421053
 20
221.4738627333765
 30
0.0
 11
255.6797662421051
 21
241.4738627333765
 31
0.0
  0
LINE
  5
23A
330
1F
100
AcDbEntity
  8
0
370
    25
100
AcDbLine
 10
255.6797662421051
 20
241.4738627333765
 30
0.0
 11
295.6797662421052
 21
241.4738627333765
 31
0.0
  0
VIEWPORT
  5
21F
330
1B
100
AcDbEntity
 67
     1
  8
0
100
AcDbViewport
 10
121.9062347412108
 20
102.1562471389769
 30
0.0
 40
485.1846096088419
 41
228.4221935424803
 68
     1
 69
     1
 12
121.9062347412108
 22
102.1562471389769
 13
0.0
 23
0.0
 14
10.0
 24
10.0
 15
10.0
 25
10.0
 16
0.0
 26
0.0
 36
1.0
 17
0.0
 27
0.0
 37
0.0
 42
50.0
 43
0.0
 44
0.0
 45
228.4221935424803
 50
0.0
 51
0.0
 72
   100
 90
    32800
  1

281
     0
 71
     1
 74
     0
110
0.0
120
0.0
130
0.0
111
1.0
121
0.0
131
0.0
112
0.0
122
1.0
132
0.0
 79
     0
146
0.0
  0
VIEWPORT
  5
221
330
1B
100
AcDbEntity
 67
     1
  8
0
100
AcDbViewport
 10
121.9062404632567
 20
102.1562485694885
 30
0.0
 40
195.0499847412108
 41
163.4499977111816
 68
     2
 69
     2
 12
243.6776743569383
 22
125.8180396055314
 13
0.0
 23
0.0
 14
10.0
 24
10.0
 15
10.0
 25
10.0
 16
0.0
 26
0.0
 36
1.0
 17
0.0
 27
0.0
 37
0.0
 42
50.0
 43
0.0
 44
0.0
 45
276.8825053862471
 50
0.0
 51
0.0
 72
   100
 90
    32864
  1

281
     0
 71
     1
 74
     0
110
0.0
120
0.0
130
0.0
111
1.0
121
0.0
131
0.0
112
0.0
122
1.0
132
0.0
 79
     0
146
0.0
  0
ENDSEC
  0
SECTION
  2
OBJECTS
  0
DICTIONARY
  5
C
330
0
100
AcDbDictionary
281
     1
  3
ACAD_GROUP
350
D
  3
ACAD_LAYOUT
350
1A
  3
ACAD_MLINESTYLE
350
17
  3
ACAD_PLOTSETTINGS
350
19
  3
ACAD_PLOTSTYLENAME
350
E
  3
DWGPROPS
350
23B
  0
DICTIONARY
  5
D
102
{ACAD_REACTORS
330
C
102
}
330
C
100
AcDbDictionary
281
     1
  0
DICTIONARY
  5
1A
102
{ACAD_REACTORS
330
C
102
}
330
C
100
AcDbDictionary
281
     1
  3
Layout1
350
1E
  3
Layout2
350
26
  3
Model
350
22
  0
DICTIONARY
  5
17
102
{ACAD_REACTORS
330
C
102
}
330
C
100
AcDbDictionary
281
     1
  3
Standard
350
18
  0
DICTIONARY
  5
19
102
{ACAD_REACTORS
330
C
102
}
330
C
100
AcDbDictionary
281
     1
  0
ACDBDICTIONARYWDFLT
  5
E
102
{ACAD_REACTORS
330
C
102
}
330
C
100
AcDbDictionary
281
     1
  3
Normal
350
F
100
AcDbDictionaryWithDefault
340
F
  0
XRECORD
  5
23B
102
{ACAD_REACTORS
330
C
102
}
330
C
100
AcDbXrecord
280
     1
  1
DWGPROPS COOKIE
  2
Hiss Reet Eckpfosten
  3
Hiss Reet Naturbaustoffe
  4
Philip Kullmann
  6
Eckpfosten aus Fichtenholz für die Hiss Reet Wand
  7
Trennwand, Zubehör, Naturbaustoffe
  8
Don Kulmao
  9

300
=
301
=
302
=
303
=
304
=
305
=
306
=
307
=
308
=
309
=
 40
0.0082119791666667
 41
2454207.406182361
 42
2454207.468814733
  1

 90
        0
  0
LAYOUT
  5
1E
102
{ACAD_REACTORS
330
1A
102
}
330
1A
100
AcDbPlotSettings
  1

  2
DWF Classic.pc3
  4
ANSI_A_(8.50_x_11.00_Inches)
  6

 40
5.793749809265136
 41
17.79375076293945
 42
5.793746948242187
 43
17.79376220703125
 44
215.8999938964842
 45
279.3999938964843
 46
0.0
 47
0.0
 48
0.0
 49
0.0
140
0.0
141
0.0
142
1.0
143
1.0
 70
   688
 72
     1
 73
     1
 74
     5
  7

 75
    16
147
1.0
148
0.0
149
0.0
100
AcDbLayout
  1
Layout1
 70
     1
 71
     1
 10
-17.79376220703125
 20
-5.793749809265136
 11
261.606231689453
 21
210.1062440872192
 12
0.0
 22
0.0
 32
0.0
 14
24.38124809265135
 24
20.4312497138977
 34
0.0
 15
219.4312328338622
 25
183.8812474250793
 35
0.0
146
0.0
 13
0.0
 23
0.0
 33
0.0
 16
1.0
 26
0.0
 36
0.0
 17
0.0
 27
1.0
 37
0.0
 76
     0
330
1B
331
21F
  0
LAYOUT
  5
26
102
{ACAD_REACTORS
330
1A
102
}
330
1A
100
AcDbPlotSettings
  1

  2
C:\Programme\ACAD2000\plotters\DWF Classic.pc3
  4

  6

 40
0.0
 41
0.0
 42
0.0
 43
0.0
 44
0.0
 45
0.0
 46
0.0
 47
0.0
 48
0.0
 49
0.0
140
0.0
141
0.0
142
1.0
143
1.0
 70
   688
 72
     0
 73
     0
 74
     5
  7

 75
    16
147
1.0
148
0.0
149
0.0
100
AcDbLayout
  1
Layout2
 70
     1
 71
     2
 10
0.0
 20
0.0
 11
12.0
 21
9.0
 12
0.0
 22
0.0
 32
0.0
 14
0.0
 24
0.0
 34
0.0
 15
0.0
 25
0.0
 35
0.0
146
0.0
 13
0.0
 23
0.0
 33
0.0
 16
1.0
 26
0.0
 36
0.0
 17
0.0
 27
1.0
 37
0.0
 76
     0
330
23
  0
LAYOUT
  5
22
102
{ACAD_REACTORS
330
1A
102
}
330
1A
100
AcDbPlotSettings
  1

  2
CutePDF Writer
  4
Letter
  6

 40
3.174999952316283
 41
3.174999952316283
 42
3.175003051757812
 43
3.17498779296875
 44
215.8999938964842
 45
279.3999938964843
 46
5.629999999999999
 47
0.0
 48
160.8478517518766
 49
-23.97482879899951
140
370.1133807043532
141
264.1939433067518
142
1.0
143
1.055369952807032
 70
 11956
 72
     1
 73
     0
 74
     4
  7

 75
     0
147
0.9475350301003334
148
-160.8478517518766
149
23.97482879899951
100
AcDbLayout
  1
Model
 70
     1
 71
     0
 10
0.0
 20
0.0
 11
12.0
 21
9.0
 12
0.0
 22
0.0
 32
0.0
 14
0.0
 24
0.0
 34
0.0
 15
0.0
 25
0.0
 35
0.0
146
0.0
 13
0.0
 23
0.0
 33
0.0
 16
1.0
 26
0.0
 36
0.0
 17
0.0
 27
1.0
 37
0.0
 76
     0
330
1F
  0
MLINESTYLE
  5
18
102
{ACAD_REACTORS
330
17
102
}
330
17
100
AcDbMlineStyle
  2
STANDARD
 70
     0
  3

 62
   256
 51
90.0
 52
90.0
 71
     2
 49
0.5
 62
   256
  6
BYLAYER
 49
-0.5
 62
   256
  6
BYLAYER
  0
ACDBPLACEHOLDER
  5
F
102
{ACAD_REACTORS
330
E
102
}
330
E
  0
ENDSEC
  0
EOF
